nginx CF-RAY: 34746bcb5c3b4ed2-DME FIFA World Cup 2014 Final Germany Vs Argentina beIN sport arabic torrent on rpieclub.org
FIFA World Cup 2014

FIFA World Cup 2014 (2014)

Sports

Full description

FIFA World Cup 2014 Final Germany Vs Argentina beIN sport arabic

Size 3.113 GB   0 seeders     Added 2014-08-28 19:31:02








Video
Format : AVC
Format/Info : Advanced Video Codec
Format profile : [email protected]
Format settings, CABAC : Yes
Format settings, ReFrames : 2 frames
Format settings, GOP : M=3, N=24
Codec ID : 7
Duration : 57mn 8s
Bit rate mode : Variable
Bit rate : 1 912 Kbps
Maximum bit rate : 3 000 Kbps
Width : 1 280 pixels
Height : 720 pixels
Display aspect ratio : 16:9
Frame rate mode : Constant
Frame rate : 50.000 fps
Color space : YUV
Chroma subsampling : 4:2:0
Bit depth : 8 bits
Scan type : Progressive
Bits/(Pixel*Frame) : 0.041
Stream size : 781 MiB (90%)

Audio
Format : AAC
Format/Info : Advanced Audio Codec
Format profile : LC
Codec ID : 10
Duration : 57mn 8s
Bit rate : 125 Kbps
Channel(s) : 2 channels
Channel positions : Front: L R
Sampling rate : 44.1 KHz
Compression mode : Lossy
Stream size : 51.1 MiB (6%)
Language : arabic
FIFA.World.Cup.2014.Final.Germany.Vs.Argentina.beIN sport arabic/FIFA.World.Cup.2014.Final.Germany.Vs.Argentina.beIN.Arabic..mkv 1.337 GB
FIFA.World.Cup.2014.Final.Germany.Vs.Argentina.beIN sport arabic/FIFA.World.Cup.2014.Final.Germany.Vs.Argentina.beIN.Arabic.1 Pr Mi-Temp.mkv 912.819 MB
FIFA.World.Cup.2014.Final.Germany.Vs.Argentina.beIN sport arabic/FIFA.World.Cup.2014.Final.Germany.Vs.Argentina.beIN.Arabic.2éme Mi-Temp.mkv 863.164 MB
Gathering some info...

Register and log in Isohunt and see no captcha anymore!

4000 symbols left
Hash 33d91257e3cffc9422cbfbe2a3f9117d1585eb3b

Related torrents for "FIFA World Cup 2014 Final Germany Vs Argentina beIN sport arabic"

Torrent search:

farsi 2014