nginx CF-RAY: 346bc0c81c0a4e4e-DME Bunkd (Bunk'd) S01E14 Close Encounters of the Camp Kind iTunes 1080p-DCMagic torrent on rpieclub.org

Bunkd (Bunk'd) S01E14 Close Encounters of the Camp Kind iTunes 1080p-DCMagic

Size 999.662 MB   3 seeders     Added 2016-03-21 18:06:08

Bunk'd:
-----------------------------------------------------------------

About this episode: After the campers think they see a UFO land in
Lake Kikiwaka, a new boy shows up at and Jorge and Tiffany think
he's an alien.
-----------------------------------------------------------------

Video
ID : 1
Format : AVC
Format/Info : Advanced Video Codec
Format profile : [email protected]
Format settings, CABAC : Yes
Format settings, ReFrames : 4 frames
Codec ID : avc1
Codec ID/Info : Advanced Video Coding
Duration : 23mn 36s
Bit rate : 5 099 Kbps
Width : 1 920 pixels
Height : 1 080 pixels
Display aspect ratio : 16:9
Frame rate mode : Constant
Frame rate : 23.976 fps
Color space : YUV
Chroma subsampling : 4:2:0
Bit depth : 8 bits
Scan type : Progressive
Bits/(Pixel*Frame) : 0.103
Stream size : 861 MiB (90%)
Title : Core Media Video
Language : English
Encoded date : UTC 2016-03-10 04:52:09
Tagged date : UTC 2016-03-10 04:52:13
Color range : Limited
Color primaries : BT.709
Transfer characteristics : BT.709
Matrix coefficients : BT.709
Audio #1
ID : 2
Format : AAC
Format/Info : Advanced Audio Codec
Format profile : LC
Codec ID : 40
Duration : 23mn 36s
Source duration : 23mn 36s
Bit rate mode : Variable
Bit rate : 160 Kbps
Maximum bit rate : 248 Kbps
Channel(s) : 2 channels
Channel positions : Front: L R
Sampling rate : 48.0 KHz
Compression mode : Lossy
Stream size : 26.4 MiB (3%)
Source stream size : 26.4 MiB (3%)
Title : Core Media Audio
Language : English
Encoded date : UTC 2016-03-10 04:52:09
Tagged date : UTC 2016-03-10 04:52:13
Audio #2
ID : 4
Format : AC-3
Format/Info : Audio Coding 3
Mode extension : CM (complete main)
Format settings, Endianness : Big
Codec ID : ac-3
Duration : 23mn 36s
Bit rate mode : Constant
Bit rate : 384 Kbps
Channel(s) : 6 channels
Channel positions : Front: L C R, Side: L R, LFE
Sampling rate : 48.0 KHz
Bit depth : 16 bits
Compression mode : Lossy
Stream size : 64.8 MiB (7%)
Title : Core Media Audio
Language : English
Encoded date : UTC 2016-03-10 04:52:09
Tagged date : UTC 2016-03-10 04:52:13
Text
ID : 3-CC1
Format : EIA-608
Muxing mode : Final Cut
Codec ID : c608
Duration : 23mn 31s
Bit rate mode : Constant
Stream size : 0.00 Byte (0%)
Title : Core Media Closed Caption
Language : English
Encoded date : UTC 2016-03-10 04:52:09
Tagged date : UTC 2016-03-10 04:52:13
---------------------------------------------------------------

Screenshots:
Bunkd.S01E14.Close.Encounters.of.the.Camp.Kind.iT1080p.DCMagic.m4v 999.662 MB
Gathering some info...

Register and log in Isohunt and see no captcha anymore!

4000 symbols left
Hash bea2a6a3f59b559602c4e38c7f6d85963c950b37