nginx CF-RAY: 35614b5ded484f3e-DME Moonshiners S05E16 End of an Era HDTV x264-CRiMSON[rartv] torrent on rpieclub.org

Moonshiners S05E16 End of an Era HDTV x264-CRiMSON[rartv]

Size 351.302 MB   0 seeders     Added 2016-03-23 04:25:07

http://rarbg.to
Moonshiners.S05E16.End.of.an.Era.HDTV.x264-CRiMSON
Screens :
Mediainfo :
Video
ID : 1
Format : AVC
Format/Info : Advanced Video Codec
Format profile : [email protected]
Format settings, CABAC : Yes
Format settings, ReFrames : 5 frames
Codec ID : avc1
Codec ID/Info : Advanced Video Coding
Duration : 41mn 47s
Bit rate : 988 Kbps
Maximum bit rate : 4 260 Kbps
Width : 720 pixels
Height : 404 pixels
Display aspect ratio : 16:9
Frame rate mode : Constant
Frame rate : 29.970 (30000/1001) fps
Color space : YUV
Chroma subsampling : 4:2:0
Bit depth : 8 bits
Scan type : Progressive
Bits/(Pixel*Frame) : 0.113
Stream size : 295 MiB (88%)
Writing library : x264 core 148 r2665 a01e339
Encoding settings : cabac=1 / ref=5 / deblock=1:-1:-1 /
analyse=0x3:0x113 / me=umh / subme=8 / psy=1 / psy_rd=1.00:0.15 /
mixed_ref=1 / me_range=16 / chroma_me=1 / trellis=1 / 8x8dct=1 /
cqm=0 / deadzone=21,11 / fast_pskip=1 / chroma_qp_offset=-3 /
threads=6 / lookahead_threads=1 / sliced_threads=0 / nr=0 /
decimate=1 / interlaced=0 / bluray_compat=0 / constrained_intra=0 /
bframes=3 / b_pyramid=2 / b_adapt=2 / b_bias=0 / direct=3 /
weightb=1 / open_gop=0 / weightp=2 / keyint=300 / keyint_min=29 /
scenecut=40 / intra_refresh=0 / rc_lookahead=50 / rc=crf / mbtree=1
/ crf=21.0 / qcomp=0.60 / qpmin=0 / qpmax=69 / qpstep=4 /
ip_ratio=1.40 / aq=1:1.00
Encoded date : UTC 2016-03-18 04:37:25
Tagged date : UTC 2016-03-18 09:42:55
Color range : Limited
Color primaries : BT.709
Matrix coefficients : BT.709
Audio
ID : 2
Format : AAC
Format/Info : Advanced Audio Codec
Format profile : LC
Codec ID : 40
Duration : 41mn 47s
Bit rate mode : Variable
Bit rate : 128 Kbps
Maximum bit rate : 155 Kbps
Channel(s) : 2 channels
Channel positions : Front: L R
Sampling rate : 48.0 KHz
Frame rate : 46.875 fps (1024 spf)
Compression mode : Lossy
Stream size : 38.3 MiB (11%)
Encoded date : UTC 2016-03-18 04:39:16
Tagged date : UTC 2016-03-18 09:42:55
Moonshiners.S05E16.End.of.an.Era.HDTV.x264-CRiMSON[rarbg]/Moonshiners.S05E16.End.of.an.Era.HDTV.x264-CRiMSON.mp4 351.302 MB
Moonshiners.S05E16.End.of.an.Era.HDTV.x264-CRiMSON[rarbg]/RARBG.com.txt 34 B
Moonshiners.S05E16.End.of.an.Era.HDTV.x264-CRiMSON[rarbg]/moonshiners.s05e16.end.of.an.era.hdtv.x264-crimson.nfo 378 B
Gathering some info...

Register and log in Isohunt and see no captcha anymore!

4000 symbols left
Hash c4dc221d8c225f803f9b31c956b4da8019b9678d