Bunkd (Bunk'd) S01E15 Crafted and Shafted iTunes 1080p-DCMagic

Size 964.685 MB   2 seeders     Added 2016-03-23 06:42:02

Bunk'd:
---------------------------------------------------------------

About this episode: The campers' survival skills are tested when
Emma and Xander take everyone on an overnight camping trip.
---------------------------------------------------------------

Video
ID : 1
Format : AVC
Format/Info : Advanced Video Codec
Format profile : [email protected]
Format settings, CABAC : Yes
Format settings, ReFrames : 4 frames
Codec ID : avc1
Codec ID/Info : Advanced Video Coding
Duration : 22mn 36s
Bit rate : 5 142 Kbps
Width : 1 920 pixels
Height : 1 080 pixels
Display aspect ratio : 16:9
Frame rate mode : Constant
Frame rate : 23.976 (24000/1001) fps
Color space : YUV
Chroma subsampling : 4:2:0
Bit depth : 8 bits
Scan type : Progressive
Bits/(Pixel*Frame) : 0.103
Stream size : 831 MiB (90%)
Title : Core Media Video
Language : English
Encoded date : UTC 2016-03-16 05:04:07
Tagged date : UTC 2016-03-16 05:04:12
Color range : Limited
Color primaries : BT.709
Transfer characteristics : BT.709
Matrix coefficients : BT.709
Audio #1
ID : 2
Format : AAC
Format/Info : Advanced Audio Codec
Format profile : LC
Codec ID : 40
Duration : 22mn 36s
Source duration : 22mn 36s
Bit rate mode : Variable
Bit rate : 160 Kbps
Maximum bit rate : 261 Kbps
Channel(s) : 2 channels
Channel positions : Front: L R
Sampling rate : 48.0 KHz
Frame rate : 46.875 fps (1024 spf)
Compression mode : Lossy
Stream size : 25.4 MiB (3%)
Source stream size : 25.4 MiB (3%)
Title : Core Media Audio
Language : English
Default : Yes
Alternate group : 1
Encoded date : UTC 2016-03-16 05:04:07
Tagged date : UTC 2016-03-16 05:04:12
Fallback From : 4
Audio #2
ID : 4
Format : AC-3
Format/Info : Audio Coding 3
Mode extension : CM (complete main)
Format settings, Endianness : Big
Codec ID : ac-3
Duration : 22mn 36s
Bit rate mode : Constant
Bit rate : 384 Kbps
Channel(s) : 6 channels
Channel positions : Front: L C R, Side: L R, LFE
Sampling rate : 48.0 KHz
Frame rate : 31.250 fps (1536 spf)
Bit depth : 16 bits
Compression mode : Lossy
Stream size : 62.1 MiB (7%)
Title : Core Media Audio
Language : English
Default : Inherited From: 2
Alternate group : 1
Encoded date : UTC 2016-03-16 05:04:07
Tagged date : UTC 2016-03-16 05:04:12
Fallback To : 2
Text
ID : 3-CC1
Format : EIA-608
Muxing mode : Final Cut
Codec ID : c608
Duration : 22mn 32s
Bit rate mode : Constant
Stream size : 0.00 Byte (0%)
Title : Core Media Closed Caption
Language : English
Forced : No
Encoded date : UTC 2016-03-16 05:04:07
Tagged date : UTC 2016-03-16 05:04:12
---------------------------------------------------------------

Screenshots:
Bunkd.S01E15.Crafted.and.Shafted.iT1080p.DCMagic.m4v 964.685 MB
Gathering some info...

Register and log in Isohunt and see no captcha anymore!

4000 symbols left
Hash 28dd84f87ab2a5e47d9c2c414db3ca8d303687c0