nginx CF-RAY: 3479c873ea074f5c-DME 300 Rise of an Empire torrent on rpieclub.org
imdb
rating

6.3
300: Rise of an Empire

300: Rise of an Empire (2014)

Action, War

Full description
quality   telesync dvdrip x264 hd bd

300 Rise of an Empire

Size 1.015 GB   13 seeders     Added 2016-05-05 01:07:03

6.7
DvdRip;Converted to MPEG-4;Quality
Original;SeedBox Supported; Enjoy!
For more of my selections please go to;Classics and Sci Fi
by DaScubaDude
300: Rise of an Empire (2014)
R | 1h 42min | Action, Drama, Fantasy | 7 March 2014 (USA)
Greek general Themistokles leads the charge against invading
Persian forces led by mortal-turned-god Xerxes and Artemisia,
vengeful commander of the Persian navy.
Director: Noam Murro
Writers: Zack Snyder (screenplay), Kurt Johnstad (screenplay)
|
Stars: Sullivan Stapleton, Eva Green, Lena Headey
General
Complete name : 300 Rise of an
Empire\300_RISE_OF_AN_EMPIRE_Title1.mp4
Format : MPEG-4
Format profile : Base Media
Codec ID : isom (isom/iso2/avc1/mp41)
File size : 968 MiB
Duration : 1h 42mn
Overall bit rate : 1 320 Kbps
Movie name : 300_RISE_OF_AN_EMPIRE
Genre : Action
Writing application : Lavf54.6.100
Video
ID : 1
Format : AVC
Format/Info : Advanced Video Codec
Format profile : [email protected]
Format settings, CABAC : No
Format settings, ReFrames : 6 frames
Codec ID : avc1
Codec ID/Info : Advanced Video Coding
Duration : 1h 42mn
Bit rate : 1 186 Kbps
Width : 720 pixels
Height : 404 pixels
Display aspect ratio : 16:9
Frame rate mode : Constant
Frame rate : 29.970 (30000/1001) fps
Color space : YUV
Chroma subsampling : 4:2:0
Bit depth : 8 bits
Scan type : Progressive
Bits/(Pixel*Frame) : 0.136
Stream size : 869 MiB (90%)
Audio
ID : 2
Format : AAC
Format/Info : Advanced Audio Codec
Format profile : LC
Codec ID : 40
Duration : 1h 42mn
Bit rate mode : Constant
Bit rate : 128 Kbps
Channel(s) : 2 channels
Channel positions : Front: L R
Sampling rate : 44.1 KHz
Frame rate : 43.066 fps (1024 spf)
Compression mode : Lossy
Stream size : 93.8 MiB (10%)
Default : Yes
Alternate group : 1
300 Rise of an Empire/300_RISE_OF_AN_EMPIRE_Title1.mp4 1.015 GB
Gathering some info...

Register and log in Isohunt and see no captcha anymore!

4000 symbols left
Hash 38ee16cfb79098b4b0c1c1f4beea6540f411c284

Related torrents for "300 Rise of an Empire"