nginx CF-RAY: 3547554d79954e54-DME Bunkd (Bunk'd) S01E20 Live From Camp Kikiwaka iTunes 1080p-DCMagic torrent on rpieclub.org
Bunk

Bunk (2012)

Comedy, Family

Full description

Bunkd (Bunk'd) S01E20 Live From Camp Kikiwaka iTunes 1080p-DCMagic

Size 971.621 MB   3 seeders     Added 2016-05-15 17:04:04

Bunk'd:
---------------------------------------------------------------

About this episode: When the kids realize how outdated the Camp
Kikiwaka website is, they decide to do a live stream to show people
how great the camp is.
---------------------------------------------------------------

Video
ID : 1
Format : AVC
Format/Info : Advanced Video Codec
Format profile : [email protected]
Format settings, CABAC : Yes
Format settings, ReFrames : 4 frames
Codec ID : avc1
Codec ID/Info : Advanced Video Coding
Duration : 23mn 6s
Bit rate : 5 060 Kbps
Width : 1 920 pixels
Height : 1 080 pixels
Display aspect ratio : 16:9
Frame rate mode : Constant
Frame rate : 23.976 (24000/1001) fps
Color space : YUV
Chroma subsampling : 4:2:0
Bit depth : 8 bits
Scan type : Progressive
Bits/(Pixel*Frame) : 0.102
Stream size : 836 MiB (90%)
Title : Core Media Video
Language : English
Encoded date : UTC 2016-05-12 03:42:23
Tagged date : UTC 2016-05-12 03:42:27
Color range : Limited
Color primaries : BT.709
Transfer characteristics : BT.709
Matrix coefficients : BT.709
Audio #1
ID : 2
Format : AAC
Format/Info : Advanced Audio Codec
Format profile : LC
Codec ID : 40
Duration : 23mn 6s
Source duration : 23mn 6s
Bit rate mode : Variable
Bit rate : 160 Kbps
Maximum bit rate : 247 Kbps
Channel(s) : 2 channels
Channel positions : Front: L R
Sampling rate : 48.0 KHz
Frame rate : 46.875 fps (1024 spf)
Compression mode : Lossy
Stream size : 25.8 MiB (3%)
Source stream size : 25.8 MiB (3%)
Title : Core Media Audio
Language : English
Default : Yes
Alternate group : 1
Encoded date : UTC 2016-05-12 03:42:23
Tagged date : UTC 2016-05-12 03:42:27
Fallback From : 4
Audio #2
ID : 4
Format : AC-3
Format/Info : Audio Coding 3
Mode extension : CM (complete main)
Format settings, Endianness : Big
Codec ID : ac-3
Duration : 23mn 6s
Bit rate mode : Constant
Bit rate : 384 Kbps
Channel(s) : 6 channels
Channel positions : Front: L C R, Side: L R, LFE
Sampling rate : 48.0 KHz
Frame rate : 31.250 fps (1536 spf)
Bit depth : 16 bits
Compression mode : Lossy
Stream size : 63.5 MiB (7%)
Title : Core Media Audio
Language : English
Default : Inherited From: 2
Alternate group : 1
Encoded date : UTC 2016-05-12 03:42:23
Tagged date : UTC 2016-05-12 03:42:27
Fallback To : 2
Text
ID : 3-CC1
Format : EIA-608
Muxing mode : Final Cut
Codec ID : c608
Duration : 23mn 1s
Bit rate mode : Constant
Stream size : 0.00 Byte (0%)
Title : Core Media Closed Caption
Language : English
Forced : No
Encoded date : UTC 2016-05-12 03:42:23
Tagged date : UTC 2016-05-12 03:42:27
---------------------------------------------------------------

Screenshots:
Bunkd.S01E20.Live.From.Camp.Kikiwaka.iT1080p.DCMagic.m4v 971.621 MB
Gathering some info...

Register and log in Isohunt and see no captcha anymore!

4000 symbols left
Hash a0da657128f4bf6ddf401ea43909b002a625dc32

Related torrents for "Bunkd (Bunk'd) S01E20 Live From Camp Kikiwaka iTunes 1080p-DCMagic"

Torrent search:

season 01 fullhd episode 20