nginx CF-RAY: 35480dcb09424efc-DME Steven Universe S03E04 (Season 3 Episode 4) Barn Mates 1080p WEB-DL AAC 2.0 MP4 H.265 x265 HEVC torrent on rpieclub.org
imdb
rating

8.4
Steven Universe

Steven Universe (2013)

Animation, Comedy

Full description

Steven Universe S03E04 (Season 3 Episode 4) Barn Mates 1080p WEB-DL AAC 2.0 MP4 H.265 x265 HEVC

Size 57.471 MB   1 seeders     Added 2016-05-28 20:04:03

Steven Universe Season 3 Episode
4: Barn Mates
This release is encoded using HEVC (h.265) codec - this means the
files have way smaller size with almost the same quality.
I didn't re-encode the audio.
Subtitles: EnglishWarning: not all of the video players
support this codec! Use VLC or other player that supports it. For
Android devices use MX Player with HW+ decoding enabled, native
Sony video player should also work.Source: downloaded from YaySteven (iТunеs raw)
Encoded with FFmpeg 20160528-git-86d703f-win64-static
version.
Mediainfo:

General
Format : MPEG-4
Format profile : Base Media
Codec ID : isom
File size : 54.8 MiB
Duration : 11mn 9s
Overall bit rate : 687 Kbps
Writing application : Lavf57.37.100Video
Format : HEVC
Format/Info : High Efficiency Video Coding
Format profile : [email protected]@Main
Codec ID : hev1
Codec ID/Info : High Efficiency Video Coding
Duration : 11mn 9s
Bit rate : 524 Kbps
Width : 1 920 pixels
Height : 1 080 pixels
Display aspect ratio : 16:9
Frame rate mode : Constant
Frame rate : 23.976 fps
Color space : YUV
Chroma subsampling : 4:2:0
Bit depth : 8 bits
Scan type : Progressive
Bits/(Pixel*Frame) : 0.011
Stream size : 41.9 MiB (76%)
Writing library : x265 1.9: 8bit
Encoding settings : wpp / ctu=64 / min-cu-size=8 / max-tu-size=32 /
tu-intra-depth=2 / tu-inter-depth=2 / me=3 / subme=3 / merange=57 /
rect / amp / max-merge=3 / temporal-mvp / no-early-skip /
rdpenalty=0 / no-tskip / no-tskip-fast / strong-intra-smoothing /
no-lossless / no-cu-lossless / no-constrained-intra / no-fast-intra
/ open-gop / no-temporal-layers / interlace=0 / keyint=250 /
min-keyint=23 / scenecut=40 / rc-lookahead=30 / lookahead-slices=4
/ bframes=8 / bframe-bias=0 / b-adapt=2 / ref=4 / limit-refs=2 /
limit-modes / weightp / weightb / aq-mode=1 / qg-size=32 /
aq-strength=1.00 / cbqpoffs=0 / crqpoffs=0 / rd=6 / psy-rd=2.00 /
rdoq-level=2 / psy-rdoq=1.00 / signhide / deblock / sao /
no-sao-non-deblock / b-pyramid / cutree / no-intra-refresh / rc=crf
/ crf=23.5 / qcomp=0.60 / qpmin=0 / qpmax=51 / qpstep=4 /
ipratio=1.40 / pbratio=1.30Audio
Format : AAC
Format/Info : Advanced Audio Codec
Format profile : LC
Codec ID : 40
Duration : 11mn 9s
Bit rate mode : Constant
Bit rate : 156 Kbps
Channel(s) : 2 channels
Channel positions : Front: L R
Sampling rate : 48.0 KHz
Compression mode : Lossy
Stream size : 12.5 MiB (23%)
Steven.Universe.S03E04.Barn.Mates.1080p.WEB-DL.AAC2.0.H.265.HEVC.mp4 57.471 MB
Gathering some info...

Register and log in Isohunt and see no captcha anymore!

4000 symbols left
Hash cacd05071350f4efd17c4f498741a1767b11c695

Related torrents for "Steven Universe S03E04 (Season 3 Episode 4) Barn Mates 1080p WEB-DL AAC 2.0 MP4 H.265 x265 HEVC"

Torrent search:

season 03 episode 04 fullhd web-dl