nginx CF-RAY: 344563f7bb254e4e-DME Impractical Jokers S02E04 PROPER HDTV x264-W4F[rartv] torrent on rpieclub.org
imdb
rating

8.7
Impractical Jokers

Impractical Jokers (2011)

Comedy

Full description

Impractical Jokers S02E04 PROPER HDTV x264-W4F[rartv] Verified

Size 175.272 MB   0 seeders     Added 2016-06-02 04:08:03

http://rarbg.to
Impractical.Jokers.S02E04.PROPER.HDTV.x264-W4F
Screens :
Mediainfo :
Video
ID : 1
Format : AVC
Format/Info : Advanced Video Codec
Format profile : [email protected]
Format settings, CABAC : Yes
Format settings, ReFrames : 5 frames
Codec ID : V_MPEG4/ISO/AVC
Duration : 20mn 44s
Bit rate : 1 022 Kbps
Width : 720 pixels
Height : 404 pixels
Display aspect ratio : 16:9
Frame rate mode : Constant
Frame rate : 59.940 (60000/1001) fps
Color space : YUV
Chroma subsampling : 4:2:0
Bit depth : 8 bits
Scan type : Progressive
Bits/(Pixel*Frame) : 0.059
Stream size : 152 MiB (91%)
Writing library : x264 core 148 r2694 3b70645
Encoding settings : cabac=1 / ref=5 / deblock=1:0:0 /
analyse=0x3:0x113 / me=umh / subme=8 / psy=1 / psy_rd=1.00:0.00 /
mixed_ref=1 / me_range=16 / chroma_me=1 / trellis=1 / 8x8dct=1 /
cqm=0 / deadzone=21,11 / fast_pskip=1 / chroma_qp_offset=-2 /
threads=12 / lookahead_threads=2 / sliced_threads=0 / nr=0 /
decimate=1 / interlaced=0 / bluray_compat=0 / constrained_intra=0 /
bframes=3 / b_pyramid=2 / b_adapt=2 / b_bias=0 / direct=3 /
weightb=1 / open_gop=0 / weightp=2 / keyint=250 / keyint_min=25 /
scenecut=40 / intra_refresh=0 / rc_lookahead=50 / rc=crf / mbtree=1
/ crf=22.0 / qcomp=0.60 / qpmin=0 / qpmax=69 / qpstep=4 /
ip_ratio=1.40 / aq=1:1.00
Default : Yes
Forced : No
Color range : Limited
Matrix coefficients : BT.709
Audio
ID : 2
Format : AAC
Format/Info : Advanced Audio Codec
Format profile : LC
Codec ID : A_AAC
Duration : 20mn 44s
Bit rate : 99.7 Kbps
Channel(s) : 2 channels
Channel positions : Front: L R
Sampling rate : 48.0 KHz
Frame rate : 46.875 fps (1024 spf)
Compression mode : Lossy
Delay relative to video : 20ms
Stream size : 14.8 MiB (9%)
Language : English
Default : Yes
Forced : No
Text
ID : 3
Format : UTF-8
Codec ID : S_TEXT/UTF8
Codec ID/Info : UTF-8 Plain Text
Duration : 20mn 43s
Bit rate : 295 bps
Count of elements : 688
Stream size : 44.8 KiB (0%)
Language : English
Default : No
Forced : No
Impractical.Jokers.S02E04.PROPER.HDTV.x264-W4F[rarbg]/RARBG.com.txt 34 B
Impractical.Jokers.S02E04.PROPER.HDTV.x264-W4F[rarbg]/impractical.jokers.s02e04.proper.hdtv.x264-w4f.mkv 175.266 MB
Impractical.Jokers.S02E04.PROPER.HDTV.x264-W4F[rarbg]/impractical.jokers.s02e04.proper.hdtv.x264-w4f.nfo 6.202 KB
Gathering some info...

Register and log in Isohunt and see no captcha anymore!

4000 symbols left
Hash 97adc0099c75e65b840baa0b0dcb8305fec522b3

Related torrents for "Impractical Jokers S02E04 PROPER HDTV x264-W4F[rartv]"

Torrent search:

season 02 x264 hdtv episode 04