imdb
rating

4.8
Teen Titans Go!

Teen Titans Go!

Comedy, Action & Adventure, Animation

Full description

Teen Titans Go S03E39 Think About Your Future HDTV x264-W4F[rartv] Verified

Size 71.429 MB   0 seeders     Added 2016-06-24 11:09:04

http://rarbg.to
Teen.Titans.Go.S03E39.Think.About.Your.Future.HDTV.x264-W4F
Screens :
Mediainfo :
Video
ID : 1
Format : AVC
Format/Info : Advanced Video Codec
Format profile : High@L3.1
Format settings, CABAC : Yes
Format settings, ReFrames : 10 frames
Codec ID : V_MPEG4/ISO/AVC
Duration : 10mn 47s
Bit rate : 760 Kbps
Width : 720 pixels
Height : 404 pixels
Display aspect ratio : 16:9
Frame rate mode : Constant
Frame rate : 23.976 (24000/1001) fps
Color space : YUV
Chroma subsampling : 4:2:0
Bit depth : 8 bits
Scan type : Progressive
Bits/(Pixel*Frame) : 0.109
Stream size : 58.7 MiB (86%)
Writing library : x264 core 148 r2694 3b70645
Encoding settings : cabac=1 / ref=10 / deblock=1:1:1 /
analyse=0x3:0x113 / me=umh / subme=8 / psy=1 / psy_rd=0.40:0.00 /
mixed_ref=1 / me_range=16 / chroma_me=1 / trellis=1 / 8x8dct=1 /
cqm=0 / deadzone=21,11 / fast_pskip=1 / chroma_qp_offset=-2 /
threads=12 / lookahead_threads=3 / sliced_threads=0 / nr=0 /
decimate=1 / interlaced=0 / bluray_compat=0 / constrained_intra=0 /
bframes=5 / b_pyramid=2 / b_adapt=2 / b_bias=0 / direct=3 /
weightb=1 / open_gop=0 / weightp=2 / keyint=250 / keyint_min=23 /
scenecut=40 / intra_refresh=0 / rc_lookahead=50 / rc=crf / mbtree=1
/ crf=19.0 / qcomp=0.60 / qpmin=0 / qpmax=69 / qpstep=4 /
ip_ratio=1.40 / aq=1:0.60
Default : Yes
Forced : No
Color range : Limited
Matrix coefficients : BT.709
Audio
ID : 2
Format : AAC
Format/Info : Advanced Audio Codec
Format profile : LC
Codec ID : A_AAC
Duration : 10mn 47s
Bit rate : 120 Kbps
Channel(s) : 2 channels
Channel positions : Front: L R
Sampling rate : 48.0 KHz
Frame rate : 46.875 fps (1024 spf)
Compression mode : Lossy
Delay relative to video : 20ms
Stream size : 9.24 MiB (14%)
Language : English
Default : Yes
Forced : No
Text
ID : 3
Format : UTF-8
Codec ID : S_TEXT/UTF8
Codec ID/Info : UTF-8 Plain Text
Duration : 10mn 46s
Bit rate : 130 bps
Count of elements : 273
Stream size : 10.3 KiB (0%)
Language : English
Default : No
Forced : No
Teen.Titans.Go.S03E39.Think.About.Your.Future.HDTV.x264-W4F[rarbg]/RARBG.com.txt 34 B
Teen.Titans.Go.S03E39.Think.About.Your.Future.HDTV.x264-W4F[rarbg]/teen.titans.go.s03e39.think.about.your.future.hdtv.x264-w4f.mkv 71.423 MB
Teen.Titans.Go.S03E39.Think.About.Your.Future.HDTV.x264-W4F[rarbg]/teen.titans.go.s03e39.think.about.your.future.hdtv.x264-w4f.nfo 5.984 KB
Gathering some info...

Register and log in Isohunt and see no captcha anymore!

4000 symbols left
Hash ce450575ecfdb6125b6e7cce070e6994b15c6f85

Related torrents for "Teen Titans Go S03E39 Think About Your Future HDTV x264-W4F[rartv]"

Torrent search:

season 03 x264 hdtv episode 39