imdb
rating

7.4
Baby Daddy

Baby Daddy (2012)

Comedy

Full description

Baby Daddy S05E17 The Love Seat 720p WEB-DL DD5 1 H264-NTb[rartv] Verified

Size 710.444 MB   7 seeders     Added 2016-07-15 04:09:03

http://rarbg.to
Baby.Daddy.S05E17.The.Love.Seat.720p.WEB-DL.DD5.1.H264-NTb
Screens :
Mediainfo :
Video
ID : 1
Format : AVC
Format/Info : Advanced Video Codec
Format profile : [email protected]
Format settings, CABAC : No
Format settings, ReFrames : 2 frames
Codec ID : V_MPEG4/ISO/AVC
Duration : 21mn 25s
Bit rate : 4 034 Kbps
Width : 1 280 pixels
Height : 720 pixels
Display aspect ratio : 16:9
Frame rate mode : Constant
Frame rate : 23.976 (24000/1001) fps
Color space : YUV
Chroma subsampling : 4:2:0
Bit depth : 8 bits
Scan type : Progressive
Bits/(Pixel*Frame) : 0.183
Stream size : 618 MiB (91%)
Language : English
Default : Yes
Forced : No
Color range : Limited
Color primaries : BT.709
Transfer characteristics : BT.709
Matrix coefficients : BT.709
Audio
ID : 2
Format : AC-3
Format/Info : Audio Coding 3
Mode extension : CM (complete main)
Format settings, Endianness : Big
Codec ID : A_AC3
Duration : 21mn 25s
Bit rate mode : Constant
Bit rate : 384 Kbps
Channel(s) : 6 channels
Channel positions : Front: L C R, Side: L R, LFE
Sampling rate : 48.0 KHz
Frame rate : 31.250 fps (1536 spf)
Compression mode : Lossy
Stream size : 58.9 MiB (9%)
Language : English
Default : Yes
Forced : No
Text
ID : 3
Format : UTF-8
Codec ID : S_TEXT/UTF8
Codec ID/Info : UTF-8 Plain Text
Duration : 21mn 24s
Bit rate : 102 bps
Count of elements : 516
Stream size : 16.1 KiB (0%)
Language : English
Default : No
Forced : No
Baby.Daddy.S05E17.The.Love.Seat.720p.WEB-DL.DD5.1.H264-NTb[rarbg]/Baby.Daddy.S05E17.The.Love.Seat.720p.WEB-DL.DD5.1.H.264-NTb.mkv 710.41 MB
Baby.Daddy.S05E17.The.Love.Seat.720p.WEB-DL.DD5.1.H264-NTb[rarbg]/Baby.Daddy.S05E17.The.Love.Seat.720p.WEB-DL.DD5.1.H.264-NTb.srt 34.637 KB
Baby.Daddy.S05E17.The.Love.Seat.720p.WEB-DL.DD5.1.H264-NTb[rarbg]/RARBG.com.txt 34 B
Gathering some info...

Register and log in Isohunt and see no captcha anymore!

4000 symbols left
Hash 927f9ab0bf3aa7a02a642279506fc8ee17dd5639

Related torrents for "Baby Daddy S05E17 The Love Seat 720p WEB-DL DD5 1 H264-NTb[rartv]"

Torrent search:

season 05 episode 17 h264 hd web-dl