nginx CF-RAY: 344554e5ef5f4f3e-DME Impractical Jokers S06E01 British Invasion WEB-DL x264-[eSc] torrent on rpieclub.org
imdb
rating

8.7
Impractical Jokers

Impractical Jokers (2011)

Comedy

Full description

Impractical Jokers S06E01 British Invasion WEB-DL x264-[eSc] Verified

Size 490.718 MB   14 seeders     Added 2016-07-16 05:08:04

image
Video
ID : 1
Format : AVC
Format/Info : Advanced Video Codec
Format profile : [email protected]
Format settings, CABAC : Yes
Format settings, ReFrames : 5 frames
Codec ID : avc1
Codec ID/Info : Advanced Video Coding
Duration : 40mn 28s
Bit rate : 1 485 Kbps
Width : 720 pixels
Height : 540 pixels
Display aspect ratio : 16:9
Frame rate mode : Variable
Frame rate : 29.970 (29970/1000) fps
Minimum frame rate : 14.985 fps
Maximum frame rate : 29.970 fps
Color space : YUV
Chroma subsampling : 4:2:0
Bit depth : 8 bits
Scan type : Progressive
Bits/(Pixel*Frame) : 0.127
Stream size : 430 MiB (92%)
Writing library : x264 core 142 r2479 dd79a61
Encoding settings : cabac=1 / ref=5 / deblock=1:0:0 /
analyse=0x3:0x113 / me=umh / subme=8 / psy=1 / psy_rd=1.00:0.00 /
mixed_ref=1 / me_range=16 / chroma_me=1 / trellis=1 / 8x8dct=1 /
cqm=0 / deadzone=21,11 / fast_pskip=1 / chroma_qp_offset=-2 /
threads=12 / lookahead_threads=2 / sliced_threads=0 / nr=0 /
decimate=1 / interlaced=0 / bluray_compat=0 / constrained_intra=0 /
bframes=3 / b_pyramid=2 / b_adapt=2 / b_bias=0 / direct=3 /
weightb=1 / open_gop=0 / weightp=2 / keyint=300 / keyint_min=30 /
scenecut=40 / intra_refresh=0 / rc_lookahead=50 / rc=crf / mbtree=1
/ crf=21.0 / qcomp=0.60 / qpmin=0 / qpmax=69 / qpstep=4 /
ip_ratio=1.40 / aq=1:1.00
Color range : Limited
Color primaries : BT.709
Transfer characteristics : BT.709
Matrix coefficients : BT.709
Audio
ID : 2
Format : AAC
Format/Info : Advanced Audio Codec
Format profile : LC
Codec ID : 40
Duration : 40mn 27s
Bit rate mode : Variable
Bit rate : 124 Kbps
Channel(s) : 2 channels
Channel positions : Front: L R
Sampling rate : 48.0 KHz
Frame rate : 46.875 fps (1024 spf)
Compression mode : Lossy
Stream size : 36.0 MiB (8%)
Title : Stereo / Stereo
Language : English
Default : Yes
Alternate group : 1
Text
ID : 3
Format : Timed Text
Muxing mode : sbtl
Codec ID : tx3g
Duration : 40mn 18s
Bit rate mode : Variable
Bit rate : 199 bps
Stream size : 58.8 KiB (0%)
Language : English
Default : Yes
Forced : No
Alternate group : 3
Impractical.Jokers.S06E01.British.Invasion.WEB-DL.x264-[eSc]/Impractical.Jokers.S06E01.British.Invasion.WEB-DL.x264-[eSc].mp4 490.62 MB
Impractical.Jokers.S06E01.British.Invasion.WEB-DL.x264-[eSc]/Impractical.Jokers.S06E01.British.Invasion.WEB-DL.x264-[eSc].srt 98.426 KB
Impractical.Jokers.S06E01.British.Invasion.WEB-DL.x264-[eSc]/Torrent Downloaded From ExtraTorrent.cc.txt 338 B
Gathering some info...

Register and log in Isohunt and see no captcha anymore!

4000 symbols left
Hash 164f3e239e4b1b2aaac7c10a399fd972f18fa44f

Related torrents for "Impractical Jokers S06E01 British Invasion WEB-DL x264-[eSc]"

Torrent search:

episode 01 x264 season 06 web-dl