nginx CF-RAY: 345dad918a184e18-DME Steven Universe S03E06 Steven Floats WEB-DL AAC2 0 H264-iT00NZ[rartv] torrent on rpieclub.org
imdb
rating

8.4
Steven Universe

Steven Universe (2013)

Animation, Comedy

Full description

Steven Universe S03E06 Steven Floats WEB-DL AAC2 0 H264-iT00NZ[rartv] Verified

Size 147.712 MB   0 seeders     Added 2016-07-19 14:06:04

10
http://rarbg.to
Steven.Universe.S03E06.Steven.Floats.WEB-DL.AAC2.0.H264-iT00NZ
Screens :
Mediainfo :
Video
ID : 1
Format : AVC
Format/Info : Advanced Video Codec
Format profile : [email protected]
Format settings, CABAC : No
Format settings, ReFrames : 1 frame
Format settings, GOP : N=1
Codec ID : V_MPEG4/ISO/AVC
Duration : 11mn 26s
Bit rate : 1 594 Kbps
Width : 640 pixels
Height : 480 pixels
Display aspect ratio : 16:9
Frame rate mode : Constant
Frame rate : 23.976 (24000/1001) fps
Color space : YUV
Chroma subsampling : 4:2:0
Bit depth : 8 bits
Scan type : Progressive
Bits/(Pixel*Frame) : 0.216
Stream size : 130 MiB (93%)
Language : English
Default : Yes
Forced : No
Color range : Limited
Color primaries : BT.601 NTSC
Transfer characteristics : BT.709
Matrix coefficients : BT.601
Audio
ID : 2
Format : AAC
Format/Info : Advanced Audio Codec
Format profile : LC
Codec ID : A_AAC
Duration : 11mn 26s
Bit rate : 125 Kbps
Channel(s) : 2 channels
Channel positions : Front: L R
Sampling rate : 44.1 KHz
Frame rate : 43.066 fps (1024 spf)
Compression mode : Lossy
Stream size : 10.2 MiB (7%)
Language : English
Default : Yes
Forced : No
Text
ID : 3
Format : UTF-8
Codec ID : S_TEXT/UTF8
Codec ID/Info : UTF-8 Plain Text
Duration : 11mn 25s
Bit rate : 83 bps
Count of elements : 296
Stream size : 6.97 KiB (0%)
Language : English
Default : Yes
Forced : No
Steven.Universe.S03E06.Steven.Floats.WEB-DL.AAC2.0.H264-iT00NZ[rarbg]/RARBG.com.txt 34 B
Steven.Universe.S03E06.Steven.Floats.WEB-DL.AAC2.0.H264-iT00NZ[rarbg]/Steven.Universe.S03E06.Steven.Floats.480p.WEB-DL.AAC2.0.H.264-iT00NZ.mkv 147.694 MB
Steven.Universe.S03E06.Steven.Floats.WEB-DL.AAC2.0.H264-iT00NZ[rarbg]/Steven.Universe.S03E06.Steven.Floats.480p.WEB-DL.AAC2.0.H.264-iT00NZ.srt 17.556 KB
Gathering some info...

Register and log in Isohunt and see no captcha anymore!

4000 symbols left
Hash 7dc2cb1536242e5f645e02837df083c9a9ce8d61

Related torrents for "Steven Universe S03E06 Steven Floats WEB-DL AAC2 0 H264-iT00NZ[rartv]"

Torrent search:

season 03 h264 episode 06 web-dl