imdb
rating

8.4
Steven Universe

Steven Universe (2013)

Animation, Comedy

Full description

Steven Universe S03E06 WEB-DL x264-RARBG Verified

Size 52.871 MB   0 seeders     Added 2016-07-19 14:07:03

http://rarbg.to
Steven.Universe.S03E06.WEB-DL.x264-RARBG
Screens :
Mediainfo :
Video
ID : 1
Format : AVC
Format/Info : Advanced Video Codec
Format profile : [email protected]
Format settings, CABAC : Yes
Format settings, ReFrames : 5 frames
Codec ID : avc1
Codec ID/Info : Advanced Video Coding
Duration : 11mn 26s
Bit rate : 469 Kbps
Width : 720 pixels
Height : 400 pixels
Display aspect ratio : 16:9
Frame rate mode : Constant
Frame rate : 23.976 (24000/1001) fps
Color space : YUV
Chroma subsampling : 4:2:0
Bit depth : 8 bits
Scan type : Progressive
Bits/(Pixel*Frame) : 0.068
Stream size : 38.4 MiB (78%)
Title : RARBG.COM - Steven.Universe.S03E06.WEB-DL.x264-RARBG
Writing library : x264 core 148 r2597M e86f3a1
Encoding settings : cabac=1 / ref=5 / deblock=1:-1:-1 /
analyse=0x3:0x113 / me=umh / subme=9 / psy=1 / psy_rd=1.00:0.15 /
mixed_ref=1 / me_range=16 / chroma_me=1 / trellis=2 / 8x8dct=1 /
cqm=0 / deadzone=21,11 / fast_pskip=1 / chroma_qp_offset=-3 /
threads=12 / lookahead_threads=1 / sliced_threads=0 / nr=0 /
decimate=1 / interlaced=0 / bluray_compat=0 / constrained_intra=0 /
bframes=3 / b_pyramid=2 / b_adapt=2 / b_bias=0 / direct=3 /
weightb=1 / open_gop=0 / weightp=2 / keyint=250 / keyint_min=23 /
scenecut=40 / intra_refresh=0 / rc_lookahead=50 / rc=crf / mbtree=1
/ crf=19.0 / qcomp=0.60 / qpmin=0 / qpmax=69 / qpstep=4 /
ip_ratio=1.40 / aq=1:1.00
Language : English
Encoded date : UTC 2016-07-19 09:47:14
Tagged date : UTC 2016-07-19 09:47:14
Audio
ID : 2
Format : AAC
Format/Info : Advanced Audio Codec
Format profile : LC
Codec ID : 40
Duration : 11mn 26s
Bit rate mode : Constant
Bit rate : 128 Kbps
Channel(s) : 2 channels
Channel positions : Front: L R
Sampling rate : 48.0 KHz
Frame rate : 46.875 fps (1024 spf)
Compression mode : Lossy
Stream size : 10.5 MiB (21%)
Title : RARBG.COM - Steven.Universe.S03E06.WEB-DL.x264-RARBG
Language : English
Default : Yes
Alternate group : 1
Encoded date : UTC 2016-07-19 09:47:14
Tagged date : UTC 2016-07-19 09:47:14
Steven.Universe.S03E06.WEB-DL.x264-RARBG/RARBG.COM.mp4 1.017 MB
Steven.Universe.S03E06.WEB-DL.x264-RARBG/RARBG.COM.txt 34 B
Steven.Universe.S03E06.WEB-DL.x264-RARBG/Steven.Universe.S03E06.WEB-DL.x264-RARBG.mp4 51.833 MB
Gathering some info...

Register and log in Isohunt and see no captcha anymore!

4000 symbols left
Hash 4d1243105aadee5bfae0f1eb113e9ead2acd03e7

Related torrents for "Steven Universe S03E06 WEB-DL x264-RARBG"

Torrent search:

season 03 x264 episode 06 web-dl