nginx CF-RAY: 353ff719cd14774e-LAX Steven Universe S03E06 Steven Floats 720p WEB-DL AAC2 0 H264-iT00NZ[rartv] torrent on rpieclub.org
imdb
rating

8.4
Steven Universe

Steven Universe (2013)

Animation, Comedy

Full description

Steven Universe S03E06 Steven Floats 720p WEB-DL AAC2 0 H264-iT00NZ[rartv]

Size 393.113 MB   0 seeders     Added 2016-07-19 15:05:05

http://rarbg.to
Steven.Universe.S03E06.Steven.Floats.720p.WEB-DL.AAC2.0.H264-iT00NZ
Screens :
Mediainfo :
Video
ID : 1
Format : AVC
Format/Info : Advanced Video Codec
Format profile : [email protected]
Format settings, CABAC : No
Format settings, ReFrames : 2 frames
Codec ID : V_MPEG4/ISO/AVC
Duration : 11mn 26s
Bit rate : 4 423 Kbps
Width : 1 280 pixels
Height : 720 pixels
Display aspect ratio : 16:9
Frame rate mode : Constant
Frame rate : 23.976 (24000/1001) fps
Color space : YUV
Chroma subsampling : 4:2:0
Bit depth : 8 bits
Scan type : Progressive
Bits/(Pixel*Frame) : 0.200
Stream size : 362 MiB (97%)
Language : English
Default : Yes
Forced : No
Color range : Limited
Color primaries : BT.709
Transfer characteristics : BT.709
Matrix coefficients : BT.709
Audio
ID : 2
Format : AAC
Format/Info : Advanced Audio Codec
Format profile : LC
Codec ID : A_AAC
Duration : 11mn 26s
Bit rate : 156 Kbps
Channel(s) : 2 channels
Channel positions : Front: L R
Sampling rate : 48.0 KHz
Frame rate : 46.875 fps (1024 spf)
Compression mode : Lossy
Stream size : 12.7 MiB (3%)
Language : English
Default : Yes
Forced : No
Text
ID : 3
Format : UTF-8
Codec ID : S_TEXT/UTF8
Codec ID/Info : UTF-8 Plain Text
Duration : 11mn 25s
Bit rate : 83 bps
Count of elements : 296
Stream size : 6.97 KiB (0%)
Language : English
Default : Yes
Forced : No
Steven.Universe.S03E06.Steven.Floats.720p.WEB-DL.AAC2.0.H264-iT00NZ[rarbg]/RARBG.com.txt 34 B
Steven.Universe.S03E06.Steven.Floats.720p.WEB-DL.AAC2.0.H264-iT00NZ[rarbg]/Steven.Universe.S03E06.Steven.Floats.720p.WEB-DL.AAC2.0.H.264-iT00NZ.mkv 393.096 MB
Steven.Universe.S03E06.Steven.Floats.720p.WEB-DL.AAC2.0.H264-iT00NZ[rarbg]/Steven.Universe.S03E06.Steven.Floats.720p.WEB-DL.AAC2.0.H.264-iT00NZ.srt 17.556 KB
Gathering some info...

Register and log in Isohunt and see no captcha anymore!

4000 symbols left
Hash a8ea2f35ba519d28b64e932eef01d90f3a4da4c1

Related torrents for "Steven Universe S03E06 Steven Floats 720p WEB-DL AAC2 0 H264-iT00NZ[rartv]"

Torrent search:

season 03 h264 episode 06 hd web-dl