nginx CF-RAY: 35480de74f4d4e7e-DME Steven Universe S03E06 (Season 3 Episode 6) Steven Floats 1080p WEB-DL AAC 2.0 MP4 H.265 x265 HEVC torrent on rpieclub.org
imdb
rating

8.4
Steven Universe

Steven Universe (2013)

Animation, Comedy

Full description

Steven Universe S03E06 (Season 3 Episode 6) Steven Floats 1080p WEB-DL AAC 2.0 MP4 H.265 x265 HEVC

Size 82.867 MB   3 seeders     Added 2016-07-20 22:05:04

Steven Universe Season 3 Episode
6: Steven Floats
This release is encoded using HEVC (h.265) codec - this means the
files have way smaller size with almost the same quality.
I didn't re-encode the audio.
Subtitles: EnglishWarning: not all of the video players
support this codec! Use VLC or other player that supports it. For
Android devices use MX Player with HW+ decoding enabled, native
Sony video player should also work.Source: downloaded from YaySteven (iТunеs raw)
Subtitles: YaySteven
Encoded with FFmpeg.
Mediainfo:


General
Format : MPEG-4
Format profile : Base Media
Codec ID : isom (isom/iso2/mp41)
File size : 79.0 MiB
Duration : 11 min
Overall bit rate mode : Variable
Overall bit rate : 966 kb/s
Writing application : Lavf57.42.100
Video
Format : HEVC
Format/Info : High Efficiency Video Coding
Format profile : [email protected]@Main
Codec ID : hev1
Codec ID/Info : High Efficiency Video Coding
Duration : 11 min
Bit rate : 804 kb/s
Width : 1 920 pixels
Height : 1 080 pixels
Display aspect ratio : 16:9
Frame rate mode : Constant
Frame rate : 23.976 (24000/1001) FPS
Color space : YUV
Chroma subsampling : 4:2:0
Bit depth : 8 bits
Scan type : Progressive
Bits/(Pixel*Frame) : 0.016
Stream size : 65.8 MiB (83%)
Writing library : x265 2.0: 8bit
Encoding settings : wpp / ctu=64 / min-cu-size=8 / max-tu-size=32 /
tu-intra-depth=2 / tu-inter-depth=2 / me=3 / subme=3 / merange=57 /
rect / amp / max-merge=3 / temporal-mvp / no-early-skip / rskip /
rdpenalty=0 / no-tskip / no-tskip-fast / strong-intra-smoothing /
no-lossless / no-cu-lossless / no-constrained-intra / no-fast-intra
/ open-gop / no-temporal-layers / interlace=0 / keyint=250 /
min-keyint=23 / scenecut=40 / rc-lookahead=30 / lookahead-slices=4
/ bframes=8 / bframe-bias=0 / b-adapt=2 / ref=4 / limit-refs=2 /
limit-modes / weightp / weightb / aq-mode=1 / qg-size=32 /
aq-strength=1.00 / cbqpoffs=0 / crqpoffs=0 / rd=6 / psy-rd=2.00 /
rdoq-level=2 / psy-rdoq=1.00 / no-rd-refine / signhide /
deblock=0:0 / sao / no-sao-non-deblock / b-pyramid / cutree /
no-intra-refresh / rc=crf / crf=23.5 / qcomp=0.60 / qpmin=0 /
qpmax=51 / qpstep=4 / ipratio=1.40 / pbratio=1.30
Audio
Format : AAC
Format/Info : Advanced Audio Codec
Format profile : LC
Codec ID : 40
Duration : 11 min
Bit rate mode : Constant
Bit rate : 156 kb/s
Channel(s) : 2 channels
Channel positions : Front: L R
Sampling rate : 48.0 kHz
Frame rate : 46.875 FPS (1024 spf)
Compression mode : Lossy
Stream size : 12.7 MiB (16%)
Default : Yes
Alternate group : 1
Text
Format : Timed Text
Muxing mode : sbtl
Codec ID : tx3g
Duration : 11 min
Bit rate mode : Variable
Bit rate : 97 b/s
Stream size : 8.16 KiB (0%)
Default : Yes
Forced : No
Alternate group : 3
Steven.Universe.S03E06.Steven.Floats.1080p.WEB-DL.AAC2.0.H265.HEVC.mp4 82.867 MB
Gathering some info...

Register and log in Isohunt and see no captcha anymore!

4000 symbols left
Hash 1692317ce5fc2971dbef6bd2405dfc5008fed922

Related torrents for "Steven Universe S03E06 (Season 3 Episode 6) Steven Floats 1080p WEB-DL AAC 2.0 MP4 H.265 x265 HEVC"

Torrent search:

season 03 episode 06 fullhd web-dl