nginx CF-RAY: 347460b43a1a4f14-DME Pitbull Ft. Jennifer Lopez & Cláudia Leitte - We Are One [Ole Ola] [The Official 2014 FIFA World Cup Song] [Olodum Mix] 720p [Sbyky].MP4 torrent on rpieclub.org

Pitbull Ft. Jennifer Lopez & Cláudia Leitte - We Are One [Ole Ola] [The Official 2014 FIFA World Cup Song] [Olodum Mix] 720p [Sbyky].MP4

Size 69.728 MB   0 seeders     Added 2016-10-23 14:19:24

General
Complete name : Pitbull Ft. Jennifer Lopez & Cláudia Leitte - We Are One    720p .MP4
Format : MPEG-4
Format profile : Base Media
Codec ID : isom
File size : 66.5 MiB
Duration : 4mn 5s
Overall bit rate mode : Variable
Overall bit rate : 2 269 Kbps
Encoded date : UTC 2014-05-14 21:40:19
Tagged date : UTC 2014-05-14 21:40:19

Video
ID : 1
Format : AVC
Format/Info : Advanced Video Codec
Format profile : [email protected]
Format settings, CABAC : Yes
Format settings, ReFrames : 3 frames
Codec ID : avc1
Codec ID/Info : Advanced Video Coding
Duration : 4mn 5s
Bit rate : 2 139 Kbps
Width : 1 280 pixels
Height : 720 pixels
Display aspect ratio : 16:9
Frame rate mode : Variable
Frame rate : 23.976 fps
Minimum frame rate : 23.974 fps
Maximum frame rate : 24.096 fps
Color space : YUV
Chroma subsampling : 4:2:0
Bit depth : 8 bits
Scan type : Progressive
Bits/(Pixel*Frame) : 0.097
Stream size : 62.7 MiB (94%)
Encoded date : UTC 2014-05-14 21:40:19
Tagged date : UTC 2014-05-14 21:40:19

Audio
ID : 2
Format : AAC
Format/Info : Advanced Audio Codec
Format profile : LC
Codec ID : 40
Duration : 4mn 5s
Bit rate mode : Variable
Bit rate : 126 Kbps
Channel(s) : 2 channels
Channel positions : Front: L R
Sampling rate : 44.1 KHz
Compression mode : Lossy
Stream size : 3.68 MiB (6%)
Encoded date : UTC 2014-05-14 21:40:00
Tagged date : UTC 2014-05-14 21:40:00

Shared By Sbyky
Pitbull Ft. Jennifer Lopez & Cláudia Leitte - We Are One [Ole Ola] [The Official 2014 FIFA World Cup Song] [Olodum Mix] 720p [Sbyky].MP4 69.728 MB
Pitbull Ft. Jennifer Lopez & Cláudia Leitte - We Are One [Ole Ola] [The Official 2014 FIFA World Cup Song] [Olodum Mix] 720p [Sbyky].MP4 69.728 MB
Pitbull Ft. Jennifer Lopez & Cláudia Leitte - We Are One [Ole Ola] [The Official 2014 FIFA World Cup Song] [Olodum Mix] 720p [Sbyky].MP4 69.728 MB
Gathering some info...

Register and log in Isohunt and see no captcha anymore!

4000 symbols left
Hash 4257eb783fba1ed9db1b3c7dd7eb399c5042f05c