nginx CF-RAY: 3474613c7dfe4ed8-DME We Are One (Ole Ola) [The Official 2014 FIFA World Cup Song] (Olodum Mix).mp4 torrent on rpieclub.org

We Are One (Ole Ola) [The Official 2014 FIFA World Cup Song] (Olodum Mix).mp4

Size 96.109 MB   0 seeders     Added 2016-10-23 15:01:05

We Are One (Ole Ola)


The Official THEME SONG


2014 FIFA WORLD CUP


By PITBULL


Download at 720p HD

VIDEO INFO
General
Complete name : We Are One (Ole Ola)  (Olodum Mix).mp4
Format : MPEG-4
Format profile : Base Media / Version 2
Codec ID : mp42
File size : 91.7 MiB
Duration : 4mn 5s
Overall bit rate : 3128 Kbps
Encoded date : UTC 2014-05-14 21:48:15

Video
Format : AVC
Format/Info : Advanced Video Codec
Format profile : [email protected]
Format settings, CABAC : Yes
Format settings, ReFrames : 1 frame
Codec ID : avc1
Codec ID/Info : Advanced Video Coding
Duration : 4mn 5s
Bit rate mode : Variable
Bit rate : 2 934 Kbps
Maximum bit rate : 8 854 Kbps
Width : 1 280 pixels
Height : 720 pixels
Display aspect ratio : 16:9
Frame rate mode : Constant
Frame rate : 23.976 fps
Color space : YUV
Chroma subsampling : 4:2:0
Bit depth : 8 bits
Scan type : Progressive
Bits/(Pixel*Frame) : 0.133
Stream size : 86.0 MiB (94%)
Tagged date : UTC 2014-05-14 21:49:02

Audio
Format : AAC
Format/Info : Advanced Audio Codec
Format profile : LC
Codec ID : 40
Duration : 4mn 5s
Bit rate mode : Variable
Bit rate : 192 Kbps
Maximum bit rate : 204 Kbps
Channel(s) : 2 channels
Channel positions : Front: L R
Sampling rate : 44.1 KHz
Compression mode : Lossy
Stream size : 5.63 MiB (6%)
Encoded date : UTC 2014-05-14 21:48:45

ScreenShots
We Are One (Ole Ola) [The Official 2014 FIFA World Cup Song] (Olodum Mix).mp4 96.109 MB
We Are One (Ole Ola) [The Official 2014 FIFA World Cup Song] (Olodum Mix).mp4 96.109 MB
Gathering some info...

Register and log in Isohunt and see no captcha anymore!

4000 symbols left
Hash a012752f5ab44bffdacf53c18ad8f93587d59c2e

Related torrents for "We Are One (Ole Ola) [The Official 2014 FIFA World Cup Song] (Olodum Mix).mp4"

Torrent search:

2014