nginx CF-RAY: 345db2ca9a1b4e06-DME Steven Universe s01e19 Rose's Room.mp4 torrent on rpieclub.org
imdb
rating

8.4
Steven Universe

Steven Universe (2013)

Animation, Comedy

Full description

Steven Universe s01e19 Rose's Room.mp4

Size 56.585 MB   0 seeders     Added 2016-10-23 16:26:21

Steven unlocks his mother's room.


 Video
 ID : 1
 Format : AVC
 Format/Info : Advanced Video Codec
 Format profile : [email protected]
 Format settings, CABAC : Yes
 Format settings, ReFrames : 4 frames
 Codec ID : avc1
 Codec ID/Info : Advanced Video Coding
 Duration : 11mn 11s
 Bit rate mode : Variable
 Bit rate : 509 Kbps
 Width : 720 pixels
 Height : 400 pixels
 Display aspect ratio : 16:9
 Frame rate mode : Variable
 Frame rate : 23.976 fps
 Minimum frame rate : 23.810 fps
 Maximum frame rate : 1 000.000 fps
 Color space : YUV
 Chroma subsampling : 4:2:0
 Bit depth : 8 bits
 Scan type : Progressive
 Bits/(Pixel*Frame) : 0.074
 Stream size : 40.7 MiB (75%)
 Writing library : x264 core 112

 Audio
 ID : 2
 Format : AAC
 Format/Info : Advanced Audio Codec
 Format profile : LC
 Codec ID : 40
 Duration : 11mn 11s
 Bit rate mode : Variable
 Bit rate : 160 Kbps
 Maximum bit rate : 242 Kbps
 Channel(s) : 2 channels
 Channel positions : Front: L R
 Sampling rate : 48.0 KHz
 Compression mode : Lossy
 Delay relative to video : 83ms
 Stream size : 12.8 MiB (24%)
 Language : English
Steven Universe s01e19 Rose's Room.mp4 56.585 MB
Steven Universe s01e19 Rose's Room.mp4 56.585 MB
Gathering some info...

Register and log in Isohunt and see no captcha anymore!

4000 symbols left
Hash cf1bb1e93a995c33ed59c0da714402d3cedc3af9

Related torrents for "Steven Universe s01e19 Rose's Room.mp4"

Torrent search:

season 01 episode 19