Elementary S02E14 HDTV x264 AAC E Subs [GWC].mp4

Size 129.356 MB   0 seeders     Added 2016-10-24 09:32:22

Elementary S02E14 HDTV x264 AAC E Subs  
FOLLOW ON FACEBOOK :
General 
Format : MPEG-4 
Format profile : Base Media 
File size : 123 MiB 
Duration : 43mn 35s 
Overall bit rate mode : Variable 
Overall bit rate : 396 Kbps 
Video 
Format : AVC 
Format profile : 
/*  */

Format settings, CABAC : Yes 
Format settings, ReFrames : 4 frames 
Duration : 43mn 34s 
Bit rate : 332 Kbps 
Maximum bit rate : 2 131 Kbps 
Width : 720 pixels 
Height : 404 pixels 
Display aspect ratio : 16:9 
Frame rate mode : Constant 
Frame rate : 23.976 fps 
Stream size : 104 MiB (84%) 
Title : Elementary S02E14 HDTV x264 AAC E Subs  
Writing library : x264 core 
Audio 
Format : AAC 
Format profile : HE-AAC / LC 
Duration : 43mn 35s 
Bit rate mode : Variable 
Channel(s) : 2 channels 
Sampling rate : 48.0 KHz / 24.0 KHz 
Stream size : 18.7 MiB (15%) 
Language : English 
Text 
Format : Timed Text 
Duration : 43mn 3s 
Bit rate mode : Variable 
Stream size : 35.2 KiB (0%) 
Title : English Subtitle by elderman 
Language : En
Elementary S02E14 HDTV x264 AAC E Subs [GWC].mp4 129.356 MB
Gathering some info...

Register and log in Isohunt and see no captcha anymore!

4000 symbols left
Hash cf1c430f80d7d2ec1d102bfbea56417bcbb05a79

Related torrents for "Elementary S02E14 HDTV x264 AAC E Subs [GWC].mp4"