nginx CF-RAY: 344f8e62cb554f02-DME Sherlock S03E02 The Sign of Three HDTV 480p x264 AAC E-Subs [GWC].mp4 torrent on rpieclub.org

Sherlock S03E02 The Sign of Three HDTV 480p x264 AAC E-Subs [GWC].mp4

Size 278.8 MB   2 seeders     Added 2016-10-24 16:22:08

10
Sherlock S03E02 The Sign of Three HDTV x264 AAC E-Subs 
FOLLOW ON FACEBOOK :
General 
Format : MPEG-4 
Format profile : Base Media 
Codec ID : isom 
File size : 266 MiB 
Duration : 1h 25mn 
Overall bit rate mode : Variable 
Overall bit rate : 433 Kbps 
Video 
Format : AVC 
Format profile : 
/*  */

Format settings, CABAC : Yes 
Format settings, ReFrames : 4 frames 
Duration : 1h 25mn 
Bit rate : 370 Kbps 
Maximum bit rate : 5 159 Kbps 
Width : 720 pixels 
Height : 404 pixels 
Display aspect ratio : 16:9 
Frame rate : 25.000 fps 
Stream size : 227 MiB (85%) 
Title : Sherlock S03E02 The Sign of Three HDTV x264 AAC E-Subs  
Writing library : x264 core
Language : English 
Audio 
Format : AAC 
Format profile : HE-AAC / LC 
Duration : 1h 25mn 
Bit rate mode : Variable 
Channel(s) : 2 channels 
Sampling rate : 48.0 KHz / 24.0 KHz 
Stream size : 36.8 MiB 
Language : English 
Text 
Codec ID : tx3g 
Duration : 1h 25mn 
Stream size : 53.1 KiB (0%) 
Language : En
Sherlock S03E02 The Sign of Three HDTV 480p x264 AAC E-Subs [GWC].mp4 278.8 MB
Gathering some info...

Register and log in Isohunt and see no captcha anymore!

4000 symbols left
Hash 2049120e9ead26cdb0c1cf8b405f98bf7caec066

Related torrents for "Sherlock S03E02 The Sign of Three HDTV 480p x264 AAC E-Subs [GWC].mp4"