nginx CF-RAY: 347e8d1d5c344ed2-DME Maleficent 2014 FRENCH DVDRiP XViD - DEUTERiUM torrent on rpieclub.org

Maleficent 2014 FRENCH DVDRiP XViD - DEUTERiUM

Size 751.93 MB   0 seeders     Added 2016-10-24 21:13:12

Maleficent 2014 FRENCH DVDRiP XViD - DEUTERiUM



Movie info :
GENRE............: Action | Adventure | Drama



STATS:

Video
ID                               : 0
Format                           : MPEG-4 Visual
Format profile                   : Advanced [email protected]
Format settings, BVOP            : 2
Format settings, QPel            : No
Format settings, GMC             : No warppoints
Format settings, Matrix          : Default (MPEG)
Muxing mode                      : Packed bitstream
Codec ID                         : XVID
Codec ID/Hint                    : XviD
Duration                         : 2h 15mn
Bit rate                         : 986 Kbps
Width                            : 720 pixels
Height                           : 320 pixels
Display aspect ratio             : 2.25:1
Frame rate                       : 29.970 fps
Color space                      : YUV
Chroma subsampling               : 4:2:0
Bit depth                        : 8 bits
Scan type                        : Progressive
Compression mode                 : Lossy
Bits/(Pixel*Frame)               : 0.243
Stream size                      : 647 MiB (92%)
Writing library                  : XviD 64

Audio

Format                           : MPEG Audio
Format version                   : Version 1
Format profile                   : Layer 3
Mode                             : Joint stereo
Mode extension                   : MS Stereo
Codec ID                         : 55
Codec ID/Hint                    : MP3
Duration                         : 2h 15mn
Bit rate mode                    : Constant
Bit rate                         : 128 Kbps
Channel(s)                       : 2 channels
Sampling rate                    : 48.0 KHz
Compression mode                 : Lossy
Stream size                      : 56 MiB (7%)
Alignment                        : Split accross interleaves
Interleave, duration             : 33 ms (1.00 video frame)
Interleave, preload duration     : 500 ms
Maleficent 2014 FRENCH DVDRiP XViD - DEUTERiUM/Maleficent 2014 FRENCH DVDRiP XViD - DEUTERiUM.mp4 16.823 MB
Maleficent 2014 FRENCH DVDRiP XViD - DEUTERiUM/Maleficent 2014 FRENCH DVDRiP XViD - DEUTERiUM.nfo 2.042 KB
Maleficent 2014 FRENCH DVDRiP XViD - DEUTERiUM/Maleficent 2014 FRENCH DVDRiP XViD - DEUTERiUM.rar 735.052 MB
Gathering some info...

Register and log in Isohunt and see no captcha anymore!

4000 symbols left
Hash c6b5e4641af20c3505fec4770257db8b1297b2e0