nginx CF-RAY: 357a0b1b4d7c4e18-DME Sherlock - The Abominable Bride - L'abominevole sposa (2016).H264.Italian.English.Ac3.sub.Ita.Eng.iCV-MIRCrew [Isohunt.to] torrent on rpieclub.org

Sherlock - The Abominable Bride - L'abominevole sposa (2016).H264.Italian.English.Ac3.sub.Ita.Eng.iCV-MIRCrew [Isohunt.to] Verified

Size 1.427 GB   168 seeders     Added 2016-11-25 20:22:36

Sherlock - The Abominable Bride - L'abominevole sposa (2016).H264.Italian.English.Ac3.sub.Ita.Eng.iCV-MIRCrew

[center]

[color=red][b][img]image[/img]
[u]NO FOUND ONLY ORIGINAL RELEASE[/u]

[img]image[/img]

My release is always in double track audio italian and Original audio
for select it use VLC or dvd player home
not use wmp 

Sherlock - L'abominevole sposa - The Abominable Bride (2016)

[img]http://extraimage.net/images/2016/11/25/986b2cf08ca959ba90ce03f901254f16.png[/img]

[URL=http://www.imdb.com/title/tt3845232/][IMG]image[/IMG][/URL] 

[img]image[/img]

    DATA USCITA: 12 gennaio 2016
    GENERE: Giallo , Drammatico
    ANNO: 2016
    REGIA: Douglas Mackinnon
    SCENEGGIATURA: Mark Gatiss, Steven Moffat
    PRODUZIONE: Hartswood Films
    DISTRIBUZIONE: Nexo Digital
    PAESE: Gran Bretagna
    DURATA: 90 Min

[img]image[/img]

Benedict Cumberbatch, Martin Freeman

[img]image[/img]

Cosa accadrebbe se il più famoso detective al mondo e il suo migliore amico vivessero in una Baker Street fatta di treni a vapore, carrozze a due ruote, cappelli a cilindro e redingote? Per la prima volta al mondo Benedict Cumberbatch (nei panni di Sherlock Holmes) e Martin Freeman (in quelli dell’immancabile Watson) sbarcheranno al cinema con Sherlock. L’abominevole sposa

[img]image[/img]

Imagining himself back in the 1890s, Sherlock is visited by Inspector Lestrade after newlywed Emelia Ricoletti, having apparently killed herself in public, murders her husband Thomas in front of witnesses before vanishing. Some months later Holmes is approached by Lady Carmichael, who tells him that her husband Sir Eustace has been threatened by Emelia, who then seemingly does away with him. With an intrusive Moriarty crossing him, Holmes attempts to solve the enigma. 

[img]image[/img]

[img]http://extraimage.net/images/2016/11/25/7a11a438ef63b1d3c8f61c884ef9b04e.png[/img]
[img]http://extraimage.net/images/2016/11/25/5fa7a0444326f84fe50dec2556cdb53e.png[/img]
[img]http://extraimage.net/images/2016/11/25/dde58a3ae609f780c704cce0f05fc705.png[/img]
[img]http://extraimage.net/images/2016/11/25/dde01ef39449a656e113f9aed2eb4269.png[/img]

[img]image[/img]

[spoiler]
General
Unique ID                                : 309619666389012021503927784959881305499 (0xE8EE9424D46F09C8D277EE531E48DD9B)
Complete name                            : Sherlock - L'abominevole sposa - The Abominable Bride (2016).H264.ita.eng.sub.ita.eng.iCV-MIRCrew.mkv
Format                                   : Matroska
Format version                           : Version 2
File size                                : 1.33 GiB
Duration                                 : 1h 33mn
Overall bit rate                         : 2 043 Kbps
Movie name                               : VISIT www.icv-crew.org
Encoded date                             : UTC 2016-11-24 18:25:35
Writing application                      : Lavf54.63.100
Writing library                          : Lavf54.63.100
COPYRIGHT                                : robbyrs

Video
ID                                       : 1
Format                                   : AVC
Format/Info                              : Advanced Video Codec
Format profile                           : [email protected]
Format settings, CABAC                   : Yes
Format settings, ReFrames                : 2 frames
Codec ID                                 : V_MPEG4/ISO/AVC
Duration                                 : 1h 33mn
Bit rate                                 : 1 270 Kbps
Width                                    : 720 pixels
Height                                   : 390 pixels
Display aspect ratio                     : 1.854
Original display aspect ratio            : 1.853
Frame rate mode                          : Variable
Frame rate                               : 24.000 fps
Color space                              : YUV
Chroma subsampling                       : 4:2:0
Bit depth                                : 8 bits
Scan type                                : Progressive
Bits/(Pixel*Frame)                       : 0.188
Stream size                              : 822 MiB (60%)
Writing library                          : x264 core 130 r2273
Encoding settings                        : cabac=1 / ref=2 / deblock=1:0:0 / analyse=0x1:0x131 / me=hex / subme=7 / psy=1 / psy_rd=1.00:0.00 / mixed_ref=0 / me_range=16 / chroma_me=1 / trellis=1 / 8x8dct=0 / cqm=0 / deadzone=21,11 / fast_pskip=1 / chroma_qp_offset=-2 / threads=12 / lookahead_threads=2 / sliced_threads=0 / nr=0 / decimate=1 / interlaced=0 / bluray_compat=0 / constrained_intra=0 / bframes=3 / b_pyramid=0 / b_adapt=1 / b_bias=0 / direct=3 / weightb=1 / open_gop=0 / weightp=2 / keyint=240 / keyint_min=24 / scenecut=40 / intra_refresh=0 / rc_lookahead=40 / rc=2pass / mbtree=1 / bitrate=1270 / ratetol=1.0 / qcomp=0.60 / qpmin=10 / qpmax=69 / qpstep=4 / cplxblur=20.0 / qblur=0.5 / vbv_maxrate=24000 / vbv_bufsize=24000 / nal_hrd=none / ip_ratio=1.40 / aq=1:1.00
Language                                 : English
Default                                  : Yes
Forced                                   : No
DURATION                                 : 01:33:05.084000000
NUMBER_OF_FRAMES                         : 134042
NUMBER_OF_BYTES                          : 7361259072
_STATISTICS_WRITING_APP                  : mkvmerge v8.3.0 ('Over the Horizon') 64bit
_STATISTICS_WRITING_DATE_UTC             : 2016-09-30 13:32:03
_STATISTICS_TAGS                         : BPS DURATION NUMBER_OF_FRAMES NUMBER_OF_BYTES

Audio #1
ID                                       : 2
Format                                   : AC-3
Format/Info                              : Audio Coding 3
Mode extension                           : CM (complete main)
Codec ID                                 : A_AC3
Duration                                 : 1h 33mn
Bit rate mode                            : Constant
Bit rate                                 : 384 Kbps
Channel(s)                               : 2 channels
Channel positions                        : Front: L R
Sampling rate                            : 48.0 KHz
Bit depth                                : 16 bits
Compression mode                         : Lossy
Delay relative to video                  : 1mn 5s
Stream size                              : 256 MiB (19%)
Title                                    : AC3 iTA
Language                                 : Italian
Default                                  : Yes
Forced                                   : No
DURATION                                 : 01:33:05.152000000
NUMBER_OF_FRAMES                         : 174536
NUMBER_OF_BYTES                          : 134043648
_STATISTICS_WRITING_APP                  : mkvmerge v8.3.0 ('Over the Horizon') 64bit
_STATISTICS_WRITING_DATE_UTC             : 2016-09-30 13:32:03
_STATISTICS_TAGS                         : BPS DURATION NUMBER_OF_FRAMES NUMBER_OF_BYTES

Audio #2
ID                                       : 3
Format                                   : AC-3
Format/Info                              : Audio Coding 3
Mode extension                           : CM (complete main)
Codec ID                                 : A_AC3
Duration                                 : 1h 33mn
Bit rate mode                            : Constant
Bit rate                                 : 384 Kbps
Channel(s)                               : 6 channels
Channel positions                        : Front: L C R, Side: L R, LFE
Sampling rate                            : 48.0 KHz
Bit depth                                : 16 bits
Compression mode                         : Lossy
Delay relative to video                  : 1mn 5s
Stream size                              : 256 MiB (19%)
Title                                    : AC3 ENG
Language                                 : English
Default                                  : No
Forced                                   : No
DURATION                                 : 01:33:05.152000000
NUMBER_OF_FRAMES                         : 174536
NUMBER_OF_BYTES                          : 446812160
_STATISTICS_WRITING_APP                  : mkvmerge v8.3.0 ('Over the Horizon') 64bit
_STATISTICS_WRITING_DATE_UTC             : 2016-09-30 13:32:03
_STATISTICS_TAGS                         : BPS DURATION NUMBER_OF_FRAMES NUMBER_OF_BYTES

Text #1
ID                                       : 4
Format                                   : ASS
Codec ID                                 : S_TEXT/ASS
Codec ID/Info                            : Advanced Sub Station Alpha
Compression mode                         : Lossless
Title                                    : REGULAR iTA
Language                                 : Italian
Default                                  : Yes
Forced                                   : No
DURATION                                 : 01:31:46.625000000
NUMBER_OF_FRAMES                         : 1528
NUMBER_OF_BYTES                          : 56918
_STATISTICS_WRITING_APP                  : mkvmerge v8.3.0 ('Over the Horizon') 64bit
_STATISTICS_WRITING_DATE_UTC             : 2016-09-30 13:32:03
_STATISTICS_TAGS                         : BPS DURATION NUMBER_OF_FRAMES NUMBER_OF_BYTES

Text #2
ID                                       : 5
Format                                   : ASS
Codec ID                                 : S_TEXT/ASS
Codec ID/Info                            : Advanced Sub Station Alpha
Compression mode                         : Lossless
Title                                    : NON UDENTI ENG
Language                                 : English
Default                                  : No
Forced                                   : No
DURATION                                 : 01:32:07.917000000
NUMBER_OF_FRAMES                         : 1703
NUMBER_OF_BYTES                          : 56327
_STATISTICS_WRITING_APP                  : mkvmerge v8.3.0 ('Over the Horizon') 64bit
_STATISTICS_WRITING_DATE_UTC             : 2016-09-30 13:32:03
_STATISTICS_TAGS                         : BPS DURATION NUMBER_OF_FRAMES NUMBER_OF_BYTES

Menu
00:00:00.000                             : :00:00:00.000
00:05:58.500                             : :00:05:58.500
00:16:55.375                             : :00:16:55.375
00:26:53.958                             : :00:26:53.958
00:39:21.542                             : :00:39:21.542
00:50:07.708                             : :00:50:07.708
01:02:27.625                             : :01:02:27.625
01:14:00.958                             : :01:14:00.958


[/spoiler]

[/color][/b][/center]
Sherlock - L'abominevole sposa - The Abominable Bride (2016).H264.ita.eng.sub.ita.eng.iCV-MIRCrew.eng.srt 125.046 KB
Sherlock - L'abominevole sposa - The Abominable Bride (2016).H264.ita.eng.sub.ita.eng.iCV-MIRCrew.ita.srt 118.462 KB
Sherlock - L'abominevole sposa - The Abominable Bride (2016).H264.ita.eng.sub.ita.eng.iCV-MIRCrew.mkv 1.426 GB
Gathering some info...

Register and log in Isohunt and see no captcha anymore!

4000 symbols left
Hash ee6c01e495c0955bad3849cfa671a5e630287137