nginx CF-RAY: 356a8f797c9207f7-LAX [TnS] Mondaiji-tachi ga Isekai Kara Kuru Sou Desu yo - 06 SUB ITA [BD 1080p x264 Hi10p FLAC][EE1DD432].mkv torrent on rpieclub.org
Kara

Kara (2016)

Full description
quality   dvdrip hd x264

[TnS] Mondaiji-tachi ga Isekai Kara Kuru Sou Desu yo - 06 SUB ITA [BD 1080p x264 Hi10p FLAC][EE1DD432].mkv

Size 857.748 MB   3 seeders     Added 2016-12-30 19:43:08

Mondaiji-tachi ga Isekai
Kara Kuru Sou Desu yo? - 06 BD by
Tanoshimi no Sekai Fansub










General
Unique ID : 194576652486219216958675458092173889796
(0x926219A37144683B8E5C1CF2C6E81104)
Complete name :  Mondaiji-tachi ga Isekai Kara Kuru Sou Desu
yo - 06 .mkv
Format : Matroska
Format version : Version 4 / Version 2
File size : 818 MiB
Duration : 23 min 42 s
Overall bit rate mode : Variable
Overall bit rate : 4 825 kb/s
Encoded date : UTC 2016-11-29 13:37:18
Writing application : mkvmerge v9.5.0 ('Quiet
Fire') 64bit
Writing library : libebml v1.3.4 + libmatroska v1.4.5
Attachments : GearsOfPeace.ttf / HoboStd.otf / Livingst.ttf /
Panzer2.ttf / PoetsenOne-Regular_0.ttf / Swiss 721 Heavy BT.ttf /
Swiss_721_Bold_Rounded_BT.ttf / bandmess.ttf / CAMBRIAB.TTF

Video
ID : 1
Format : AVC
Format/Info : Advanced Video Codec
Format profile : High [email protected]
Format settings, CABAC : Yes
Format settings, ReFrames : 16 frames
Codec ID : V_MPEG4/ISO/AVC
Duration : 23 min 42 s
Bit rate : 3 346 kb/s
Width : 1 920 pixels
Height : 1 080 pixels
Display aspect ratio : 16:9
Frame rate mode : Constant
Frame rate : 23.976 (24000/1001) FPS
Color space : YUV
Chroma subsampling : 4:2:0
Bit depth : 10 bits
Scan type : Progressive
Bits/(Pixel*Frame) : 0.067
Stream size : 567 MiB (69%)
Title :  Mondaiji-tachi ga Isekai Kara Kuru Sou Desu yo - 06

Writing library : x264 core 142 r2431+42 c69a006 tMod 
Encoding settings : cabac=1 / ref=16 / deblock=1:-2:-2 /
analyse=0x3:0x133 / me=umh / subme=11 / psy=1 /
fade_compensate=0.50 / psy_rd=0.85:0.00 / mixed_ref=1 / me_range=24
/ chroma_me=1 / trellis=2 / 8x8dct=1 / cqm=0 / deadzone=21,11 /
fast_pskip=0 / chroma_qp_offset=-2 / threads=12 /
lookahead_threads=3 / sliced_threads=0 / nr=0 / decimate=1 /
interlaced=0 / bluray_compat=0 / constrained_intra=0 / fgo=0 /
bframes=16 / b_pyramid=2 / b_adapt=2 / b_bias=0 / direct=3 /
weightb=1 / open_gop=0 / weightp=2 / keyint=400 / keyint_min=23 /
scenecut=40 / intra_refresh=0 / rc_lookahead=90 / rc=crf / mbtree=1
/ crf=15.0000 / qcomp=0.60 / qpmin=0:0:0 / qpmax=81:81:81 /
qpstep=4 / ip_ratio=1.40 / aq=3:0.90 / aq-sensitivity=10.00 /
aq-factor=1.00:1.00:1.00 / aq2=0 / aq3=0
Language : Japanese
Default : Yes
Forced : No
Color range : Limited
Color primaries : BT.709
Transfer characteristics : BT.709
Matrix coefficients : BT.709

Audio
ID : 2
Format : FLAC
Format/Info : Free Lossless Audio Codec
Codec ID : A_FLAC
Duration : 23 min 42 s
Bit rate mode : Variable
Bit rate : 1 467 kb/s
Channel(s) : 2 channels
Channel positions : Front: L R
Sampling rate : 48.0 kHz
Frame rate : 11.719 FPS (4096 spf)
Bit depth : 24 bits
Stream size : 249 MiB (30%)
Title : FLAC
Writing library : libFLAC 1.3.1 (UTC 2014-11-25)
Language : Japanese
Default : Yes
Forced : No

Text
ID : 3
Format : ASS
Codec ID : S_TEXT/ASS
Codec ID/Info : Advanced Sub Station Alpha
Duration : 23 min 38 s
Bit rate : 2 635 b/s
Count of elements : 2914
Compression mode : Lossless
Stream size : 456 KiB (0%)
Title : TnS
Language : Italian
Default : Yes
Forced : Yes

Menu
00:00:00.000 : :Prologo
00:03:29.980 : :Opening
00:05:00.020 : :Parte A
00:11:32.080 : :Parte B
00:21:56.040 : :Ending
00:23:26.050 : :Anteprima
[TnS] Mondaiji-tachi ga Isekai Kara Kuru Sou Desu yo - 06 [BD 1080p x264 Hi10p FLAC][EE1DD432].mkv 857.748 MB
Gathering some info...

Register and log in Isohunt and see no captcha anymore!

4000 symbols left
Hash 5537452b87da6c6fefc8e356dc85e8cbc142dc34

Related torrents for "[TnS] Mondaiji-tachi ga Isekai Kara Kuru Sou Desu yo - 06 SUB ITA [BD 1080p x264 Hi10p FLAC][EE1DD432].mkv"

Torrent search:

italian x264 fullhd