imdb
rating

7.7
Sophie's Choice

Sophie's Choice (1982)

Drama, Romance

Full description

La scelta di Sophie - Sophie's Choice (1982) [BDrip 1080p - H265 - Ita Dts Eng Ac3 - Sub Ita Eng] [Isohunt.to]

Size 3.742 GB   18 seeders     Added 2017-01-26 16:04:10

10
La scelta di Sophie - Sophie's Choice (1982) [BDrip 1080p - H265 - Ita Dts Eng Ac3 - Sub Ita Eng]

[img]image[/img]

[IMG]image[/IMG]
Anno: 1982
Genere: drammatico
Regia: Alan J. Pakula

Cast: 

Meryl Streep: Sophie Zawistowska
Kevin Kline: Nathan Landau
Peter MacNicol: Stingo
Rita Karin: Yetta
Stephen D. Newman: Larry Landau
Greta Turken: Leslie Lapidus
Josh Mostel: Morris Fink
Marcell Rosenblatt: Astrid Weinstein
Moishe Rosenfeld: sé stesso
Robin Bartlett: Lillian Grossman
John Rothman: bibliotecario
Katharina Thalbach: Wanda
Nedim Prohic: Jozef
Jennifer Lawn: Eva Zawistowska
Adrian Kalitka: Jan Zawistowska
 
[IMG]image[/IMG]
La scelta di Sophie, ebrea ex internata in un campo di sterminio nazista, fu quella di abbandonare al suo destino la figlioletta per salvare se stessa e l'altro figlio, divenendo collaboratrice del comandante del lager di Auschwitz. Una scelta che ha segnato angosciosamente la sua vita, e che racconta, dopo la guerra, a Stingo, uno scrittore coinquilino nella casa in cui abita a New York, che è diventato amico suo e del marito, un geniale ma nevrotico intellettuale. Lo strano ménage a tre continua finché Sophie, dopo essersi concessa allo scrittore innamoratosi di lei, si suicida insieme al marito.

[IMG]image[/IMG]

[URL=http://www.imagebam.com/image/7f9eef528620858][IMG]image[/IMG][/URL] [URL=http://www.imagebam.com/image/4035f1528620885][IMG]image[/IMG][/URL] 

[IMG]image[/IMG]

General
Unique ID                                : 323811779448689579001826579032127110382 (0xF39BE157505CF1ACAFB85E4D50FCFCEE)
Complete name                            : D:\[CURA] Il Giorno Della Memoria\La scelta di Sophie\La.Scelta.di.Sophie.1982.BluRay.1080p.DTS.ITA.AC3.ENG.Subs.x265.Aln+AliceTNT.mkv
Format                                   : Matroska
Format version                           : Version 4 / Version 2
File size                                : 3.48 GiB
Duration                                 : 2 h 31 min
Overall bit rate                         : 3 301 kb/s
Encoded date                             : UTC 2017-01-23T09:28:44Z
Writing application                      : HandBrake 1.0.1 2016122900
Writing library                          : Lavf57.7.2 / Lavf57.7.2

Video
ID                                       : 1
Format                                   : HEVC
Format/Info                              : High Efficiency Video Coding
Format profile                           : [email protected]@Main
Codec ID                                 : V_MPEGH/ISO/HEVC
Duration                                 : 2 h 31 min
Bit rate                                 : 2 597 kb/s
Width                                    : 1 920 pixels
Height                                   : 1 040 pixels
Display aspect ratio                     : 1.85:1
Frame rate mode                          : Constant
Frame rate                               : 23.976 (24000/1001) FPS
Color space                              : YUV
Chroma subsampling                       : 4:2:0
Bit depth                                : 8 bits
Bits/(Pixel*Frame)                       : 0.054
Stream size                              : 2.74 GiB (79%)
Writing library                          : x265 2.1:[Windows][GCC 5.4.0][64 bit] 8bit
Encoding settings                        : wpp / ctu=64 / min-cu-size=8 / max-tu-size=32 / tu-intra-depth=1 / tu-inter-depth=1 / me=1 / subme=2 / merange=57 / no-rect / no-amp / max-merge=2 / temporal-mvp / no-early-skip / rskip / rdpenalty=0 / no-tskip / no-tskip-fast / no-strong-intra-smoothing / no-lossless / no-cu-lossless / no-constrained-intra / no-fast-intra / open-gop / no-temporal-layers / interlace=0 / keyint=240 / min-keyint=24 / scenecut=40 / rc-lookahead=20 / lookahead-slices=6 / bframes=4 / bframe-bias=0 / b-adapt=2 / ref=3 / limit-refs=3 / no-limit-modes / weightp / no-weightb / aq-mode=1 / qg-size=32 / aq-strength=1.00 / cbqpoffs=0 / crqpoffs=0 / rd=3 / psy-rd=2.00 / rdoq-level=0 / psy-rdoq=0.00 / log2-max-poc-lsb=8 / no-rd-refine / signhide / deblock=0:0 / sao / no-sao-non-deblock / b-pyramid / cutree / no-intra-refresh / rc=crf / crf=23.0 / qcomp=0.60 / qpmin=0 / qpmax=69 / qpstep=4 / ipratio=1.40 / pbratio=1.30
Default                                  : Yes
Forced                                   : No
Color range                              : Limited
Color primaries                          : BT.709
Transfer characteristics                 : BT.709
Matrix coefficients                      : BT.709

Audio #1
ID                                       : 2
Format                                   : DTS
Format/Info                              : Digital Theater Systems
Mode                                     : 16
Format settings, Endianness              : Big
Codec ID                                 : A_DTS
Duration                                 : 2 h 31 min
Bit rate mode                            : Constant
Bit rate                                 : 447 kb/s
Channel(s)                               : 2 channels
Channel positions                        : Front: L R
Sampling rate                            : 48.0 kHz
Frame rate                               : 93.750 FPS (512 spf)
Bit depth                                : 24 bits
Compression mode                         : Lossy
Stream size                              : 483 MiB (14%)
Title                                    : Stereo
Language                                 : Italian
Default                                  : Yes
Forced                                   : No

Audio #2
ID                                       : 3
Format                                   : AC-3
Format/Info                              : Audio Coding 3
Mode extension                           : CM (complete main)
Format settings, Endianness              : Big
Codec ID                                 : A_AC3
Duration                                 : 2 h 31 min
Bit rate mode                            : Constant
Bit rate                                 : 192 kb/s
Channel(s)                               : 2 channels
Channel positions                        : Front: L R
Sampling rate                            : 48.0 kHz
Frame rate                               : 31.250 FPS (1536 spf)
Bit depth                                : 16 bits
Compression mode                         : Lossy
Stream size                              : 208 MiB (6%)
Title                                    : Stereo
Language                                 : English
Default                                  : No
Forced                                   : No

Text #1
ID                                       : 4
Format                                   : ASS
Codec ID                                 : S_TEXT/ASS
Codec ID/Info                            : Advanced Sub Station Alpha
Compression mode                         : Lossless
Language                                 : Italian
Default                                  : Yes
Forced                                   : Yes

Text #2
ID                                       : 5
Format                                   : ASS
Codec ID                                 : S_TEXT/ASS
Codec ID/Info                            : Advanced Sub Station Alpha
Compression mode                         : Lossless
Language                                 : Italian
Default                                  : No
Forced                                   : No

Text #3
ID                                       : 6
Format                                   : ASS
Codec ID                                 : S_TEXT/ASS
Codec ID/Info                            : Advanced Sub Station Alpha
Compression mode                         : Lossless
Language                                 : English
Default                                  : No
Forced                                   : No

Menu
00:00:00.000                             : :00:00:00.000
00:12:37.423                             : :00:12:37.256
00:24:11.033                             : :00:24:10.991
00:31:09.159                             : :00:31:09.076
00:37:13.690                             : :00:37:13.690
00:51:16.574                             : :00:51:16.532
00:57:43.794                             : :00:57:43.794
01:03:58.418                             : :01:03:58.418
01:13:16.142                             : :01:13:16.142
01:20:49.261                             : :01:20:49.261
01:28:53.620                             : :01:28:53.620
01:36:46.884                             : :01:36:46.884
01:48:01.642                             : :01:48:01.642
01:55:21.498                             : :01:55:21.248
02:03:22.478                             : :02:03:22.478
02:13:28.709                             : :02:13:28.667
02:22:25.620                             : :02:22:25.454
02:28:02.582                             : :02:28:02.499

[IMG]image[/IMG]

[IMG]image[/IMG]
La.Scelta.di.Sophie.1982.BluRay.1080p.DTS.ITA.AC3.ENG.Subs.x265.Aln+AliceTNT.mkv 3.742 GB
Gathering some info...

Register and log in Isohunt and see no captcha anymore!

4000 symbols left
Hash 0e0c09efa0117d49f7623e20cd8c7e6d5e64554f

Related torrents for "La scelta di Sophie - Sophie's Choice (1982) [BDrip 1080p - H265 - Ita Dts Eng Ac3 - Sub Ita Eng] [Isohunt.to]"

Torrent search:

italian english 1982 fullhd bd