nginx CF-RAY: 34544ee85fbf4f02-DME I cieli di Escaflowne - The Movie [BDmux 1080p - H264 - Ita Jap Aac Jap Flac 5.1] [Isohunt.to] torrent on rpieclub.org
imdb
rating

6.8
Escaflowne: The Movie

Escaflowne: The Movie (2000)

Adventure, Animation, Drama

Full description
quality   hd bd hdtv h264 x264 fullhd dvdrip

I cieli di Escaflowne - The Movie [BDmux 1080p - H264 - Ita Jap Aac Jap Flac 5.1] [Isohunt.to]

Size 17.776 GB   41 seeders     Added 2017-02-01 23:54:39

10
I cieli di Escaflowne - The Movie [BDmux 1080p - H264 - Ita Jap Aac Jap Flac 5.1]

.: Trama :.

Van, ultimo discendente della casata dei Draghi, da bambino ha perso tutto quando suo fratello maggiore Folken, ribellatosi al volere della profezia che voleva Van come successore al trono, distrusse il proprio paese (la Terra di Adon) e uccise gran parte i suoi abitanti;
adesso combatte al fianco degli Abaharaki (un gruppo di ribelli, tra i quali trovano posto anche il capitano Allen Shezar e la principessa Millerna) contro l’avanzate del potere dei Draghi Oscuri, comandati da Folken stesso.
Il suo unico obiettivo, però, è quello di trovare il fratello ed ucciderlo.
Della libertà della terra di Gaia sembra non importargliene nulla.

Un giorno viene inviato dagli Abaharaki ad intercettare una delle navi dei Draghi Oscuri, contenente qualcosa di molto importante: l’armatura della leggenda, il Dio della guerra, l’Escaflowne...

.: Locandina :.

[img]image[/img]

.: Scheda :.

Titolo originale: Escaflowne - The Movie (エスカフローネ Escaflowne)
Anno: Giappone 2000 / Italia 2001
Genere: Avventura, Fantasy, Romantico, Mecha
Studio: Sunrise
Distribuzione: Giappone, Victor Entertainment / Italia, Dynit
Numero episodi: 01 (film)
Durata approssimativa: 81 minuti

.: Screenshot :. 

[img]image[/img]

.: Dati tecnici del file :.

General

Unique ID : 194817927746458294818261696127796911089 (0x9290916D5D9ADBD6B8A3016E43B61BF1)
Complete name : I cieli di Escaflowne - The Movie - [Mux By MPT].mkv
Format : Matroska
Format version : Version 4 / Version 2
File size : 16.6 GiB
Duration : 1 h 35 min
Overall bit rate mode : Variable
Overall bit rate : 24.9 Mb/s
Movie name : I cieli di Escaflowne - The Movie - Mux By MPT
Encoded date : UTC 2017-01-20 12:19:06
Writing application : mkvmerge v9.6.0 ('Slave To Your Mind') 64bit
Writing library : libebml v1.3.4 + libmatroska v1.4.5

Video

ID : 1
Format : AVC
Format/Info : Advanced Video Codec
Format profile : High [email protected]
Format settings, CABAC : Yes
Format settings, ReFrames : 9 frames
Codec ID : V_MPEG4/ISO/AVC
Duration : 1 h 35 min
Bit rate : 22.0 Mb/s
Width : 1 896 pixels
Height : 1 080 pixels
Display aspect ratio : 16:9
Frame rate mode : Constant
Frame rate : 23.976 (24000/1001) FPS
Color space : YUV
Chroma subsampling : 4:2:0
Bit depth : 10 bits
Scan type : Progressive
Bits/(Pixel*Frame) : 0.447
Stream size : 14.6 GiB (88%)
Writing library : x264 core 120 r2164+649+26 3cd0d1e tMod [[email protected] X86_64]
Encoding settings : cabac=1 / ref=9 / deblock=1:-1:-1 / analyse=0x3:0x113 / me=umh / subme=11 / psy=1 / fade_compensate=0.00 / psy_rd=0.40:0.00 / mixed_ref=1 / me_range=24 / chroma_me=1 / trellis=2 / 8x8dct=1 / cqm=0 / deadzone=21,11 / fast_pskip=0 / chroma_qp_offset=-2 / threads=9 / sliced_threads=0 / nr=0 / decimate=1 / interlaced=0 / bluray_compat=0 / constrained_intra=0 / fgo=0 / bframes=9 / b_pyramid=2 / b_adapt=2 / b_bias=0 / direct=3 / weightb=1 / open_gop=0 / weightp=2 / keyint=240 / keyint_min=1 / scenecut=40 / intra_refresh=0 / rc_lookahead=40 / rc=crf / mbtree=1 / crf=17.0000 / qcomp=0.60 / qpmin=0 / qpmax=68 / qpstep=4 / ip_ratio=1.40 / aq=3:1.00
Language : Japanese
Default : Yes
Forced : No
Color range : Full
Color primaries : BT.709
Transfer characteristics : BT.709
Matrix coefficients : BT.709

Audio #1

ID : 2
Format : AAC
Format/Info : Advanced Audio Codec
Format profile : LC
Codec ID : A_AAC
Duration : 1 h 35 min
Bit rate : 196 kb/s
Channel(s) : 2 channels
Channel positions : Front: L R
Sampling rate : 48.0 kHz
Frame rate : 46.875 FPS (1024 spf)
Compression mode : Lossy
Stream size : 133 MiB (1%)
Title : Italiano 2.0ch
Language : Italian
Default : Yes
Forced : No

Audio #2

ID : 3
Format : AAC
Format/Info : Advanced Audio Codec
Format profile : LC
Codec ID : A_AAC
Duration : 1 h 35 min
Bit rate : 196 kb/s
Channel(s) : 2 channels
Channel positions : Front: L R
Sampling rate : 48.0 kHz
Frame rate : 46.875 FPS (1024 spf)
Compression mode : Lossy
Stream size : 133 MiB (1%)
Title : Giapponese 2.0ch
Language : Japanese
Default : No
Forced : No

Audio #3

ID : 4
Format : TrueHD
Codec ID : A_TRUEHD
Duration : 1 h 35 min
Bit rate mode : Variable
Bit rate : 2 458 kb/s
Maximum bit rate : 3 663 kb/s
Channel(s) : 6 channels
Channel positions : Front: L C R, Side: L R, LFE
Sampling rate : 48.0 kHz
Frame rate : 1 200.000 FPS (40 spf)
Compression mode : Lossless
Stream size : 1.63 GiB (10%)
Title : Giapponese 5.1ch
Language : Japanese
Default : No
Forced : No
I cieli di Escaflowne - The Movie - [Mux By MPT].mkv 17.776 GB
Gathering some info...

Register and log in Isohunt and see no captcha anymore!

4000 symbols left
Hash ecdb20688923d3202e79f3caef52d9e4578d23e1

Related torrents for "I cieli di Escaflowne - The Movie [BDmux 1080p - H264 - Ita Jap Aac Jap Flac 5.1] [Isohunt.to]"

Torrent search:

italian h264 japanese fullhd