imdb
rating

 
Absolutely Fabulous: The Movie

Absolutely Fabulous: The Movie (2016)

Comedy

Full description
quality   x264 hd bd fullhd h264

Absolutely Fabulous: The Movie - Il Film (2016).H264.Italian.English.Ac3.5.1.sub.ita.eng.iCV-MIRCrew [Isohunt.to]

Size 1.494 GB   37 seeders     Added 2017-03-14 21:17:29

Absolutely Fabulous: The Movie -  Il Film (2016).H264.Italian.English.Ac3.5.1.sub.ita.eng.iCV-MIRCrew

[center]

[color=red][b][img]image[/img]
[u]NO FOUND ONLY ORIGINAL RELEASE[/u]

[img]image[/img]

My release is always in double track audio italian and Original audio
for select it use VLC or dvd player home
not use wmp 

Absolutely Fabulous: Il Film (2016)

[img]http://extraimage.net/images/2017/03/14/b7da3415d2c9f63383e18600bf3a60b8.png[/img]

[URL=http://www.imdb.com/title/tt2112096/][IMG]image[/IMG][/URL] 

[img]image[/img]

    DATA USCITA: 16 febbraio 2017
    GENERE: Commedia
    ANNO: 2016
    REGIA: Mandie Fletcher
    SCENEGGIATURA: Jennifer Saunders
    FOTOGRAFIA: Chris Goodger
    MONTAGGIO: Anthony Boys, Gavin Buckley
    MUSICHE: Charlie Mole
    PRODUZIONE: Fox Searchlight Pictures
    DISTRIBUZIONE: 20th Century Fox
    PAESE: Gran Bretagna, USA
    DURATA: 91 Min

[img]image[/img]

Jennifer Saunders, Joanna Lumley

[img]image[/img]

Riprendendo trama e personaggi della sitcom, Absolutely Fabulous: The Movie, narra le vicende delle due hippy Edina Moonson e Patsy Stone.....................

[img]image[/img]

After attracting both media and police attention for accidentally knocking Kate Moss into the River Thames, Edina and Patsy hide out in the south of France. 

[img]image[/img]

[url=http://extraimage.net/image/2XaC][img]http://extraimage.net/images/2017/03/14/b17bd48f6e7b76948a251bdce1594b2e.th.png[/img][/url] [url=http://extraimage.net/image/2Xap][img]http://extraimage.net/images/2017/03/14/92822b81709cdf666400aac2a08b7b67.th.png[/img][/url] [url=http://extraimage.net/image/2XaG][img]http://extraimage.net/images/2017/03/14/db9904cbed8e11aa05d755f6c8124fcf.th.png[/img][/url]

[img]image[/img]


[spoiler]
General
Unique ID                                : 251134367851048306045086495287670362780 (0xBCEEB84C14D384A6B7A184DD302A529C)
Complete name                            : Absolutely Fabulous Il Film (2016).H264.ita.eng.sub.ita.eng.iCV-MIRCrew.mkv
Format                                   : Matroska
Format version                           : Version 2
File size                                : 1.39 GiB
Duration                                 : 1h 30mn
Overall bit rate                         : 2 191 Kbps
Movie name                               : VISIT www.icv-crew.org
Encoded date                             : UTC 2017-03-12 17:32:56
Writing application                      : Lavf54.63.100
Writing library                          : Lavf54.63.100
COPYRIGHT                                : robbyrs

Video
ID                                       : 1
Format                                   : AVC
Format/Info                              : Advanced Video Codec
Format profile                           : [email protected]
Format settings, CABAC                   : Yes
Format settings, ReFrames                : 2 frames
Codec ID                                 : V_MPEG4/ISO/AVC
Duration                                 : 1h 30mn
Bit rate                                 : 1 290 Kbps
Width                                    : 720 pixels
Height                                   : 304 pixels
Display aspect ratio                     : 2.40:1
Frame rate mode                          : Variable
Frame rate                               : 23.976 fps
Color space                              : YUV
Chroma subsampling                       : 4:2:0
Bit depth                                : 8 bits
Scan type                                : Progressive
Bits/(Pixel*Frame)                       : 0.246
Stream size                              : 814 MiB (57%)
Writing library                          : x264 core 130 r2273
Encoding settings                        : cabac=1 / ref=2 / deblock=1:0:0 / analyse=0x1:0x131 / me=hex / subme=7 / psy=1 / psy_rd=1.00:0.00 / mixed_ref=0 / me_range=16 / chroma_me=1 / trellis=1 / 8x8dct=0 / cqm=0 / deadzone=21,11 / fast_pskip=1 / chroma_qp_offset=-2 / threads=12 / lookahead_threads=2 / sliced_threads=0 / nr=0 / decimate=1 / interlaced=0 / bluray_compat=0 / constrained_intra=0 / bframes=3 / b_pyramid=0 / b_adapt=1 / b_bias=0 / direct=3 / weightb=1 / open_gop=0 / weightp=2 / keyint=230 / keyint_min=23 / scenecut=40 / intra_refresh=0 / rc_lookahead=40 / rc=2pass / mbtree=1 / bitrate=1290 / ratetol=1.0 / qcomp=0.60 / qpmin=10 / qpmax=69 / qpstep=4 / cplxblur=20.0 / qblur=0.5 / vbv_maxrate=24000 / vbv_bufsize=24000 / nal_hrd=none / ip_ratio=1.40 / aq=1:1.00
Language                                 : Italian
Default                                  : Yes
Forced                                   : No
DURATION                                 : 01:30:55.283000000
NUMBER_OF_FRAMES                         : 130796
NUMBER_OF_BYTES                          : 5691235818
_STATISTICS_WRITING_APP                  : mkvmerge v8.7.0 ('All of the above') 64bit
_STATISTICS_WRITING_DATE_UTC             : 2017-03-10 14:42:52
_STATISTICS_TAGS                         : BPS DURATION NUMBER_OF_FRAMES NUMBER_OF_BYTES

Audio #1
ID                                       : 2
Format                                   : AC-3
Format/Info                              : Audio Coding 3
Mode extension                           : CM (complete main)
Codec ID                                 : A_AC3
Duration                                 : 1h 30mn
Bit rate mode                            : Constant
Bit rate                                 : 448 Kbps
Channel(s)                               : 6 channels
Channel positions                        : Front: L C R, Side: L R, LFE
Sampling rate                            : 48.0 KHz
Bit depth                                : 16 bits
Compression mode                         : Lossy
Delay relative to video                  : 1mn 5s
Stream size                              : 291 MiB (20%)
Language                                 : Italian
Default                                  : No
Forced                                   : No
DURATION                                 : 01:30:55.392000000
NUMBER_OF_FRAMES                         : 170481
NUMBER_OF_BYTES                          : 436431360
_STATISTICS_WRITING_APP                  : mkvmerge v8.7.0 ('All of the above') 64bit
_STATISTICS_WRITING_DATE_UTC             : 2017-03-10 14:42:52
_STATISTICS_TAGS                         : BPS DURATION NUMBER_OF_FRAMES NUMBER_OF_BYTES

Audio #2
ID                                       : 3
Format                                   : AC-3
Format/Info                              : Audio Coding 3
Mode extension                           : CM (complete main)
Codec ID                                 : A_AC3
Duration                                 : 1h 30mn
Bit rate mode                            : Constant
Bit rate                                 : 448 Kbps
Channel(s)                               : 6 channels
Channel positions                        : Front: L C R, Side: L R, LFE
Sampling rate                            : 48.0 KHz
Bit depth                                : 16 bits
Compression mode                         : Lossy
Delay relative to video                  : 1mn 5s
Stream size                              : 291 MiB (20%)
Language                                 : English
Default                                  : No
Forced                                   : No
DURATION                                 : 01:30:55.328000000
NUMBER_OF_FRAMES                         : 511437
NUMBER_OF_BYTES                          : 1029011312
_STATISTICS_WRITING_APP                  : mkvmerge v8.7.0 ('All of the above') 64bit
_STATISTICS_WRITING_DATE_UTC             : 2017-03-10 14:42:52
_STATISTICS_TAGS                         : BPS DURATION NUMBER_OF_FRAMES NUMBER_OF_BYTES

Text #1
ID                                       : 4
Format                                   : UTF-8
Codec ID                                 : S_TEXT/UTF8
Codec ID/Info                            : UTF-8 Plain Text
Title                                    : FORCED
Language                                 : Italian
Default                                  : Yes
Forced                                   : No
DURATION                                 : 01:19:34.560000000
NUMBER_OF_FRAMES                         : 10
NUMBER_OF_BYTES                          : 313
_STATISTICS_WRITING_APP                  : mkvmerge v8.7.0 ('All of the above') 64bit
_STATISTICS_WRITING_DATE_UTC             : 2017-03-10 14:42:52
_STATISTICS_TAGS                         : BPS DURATION NUMBER_OF_FRAMES NUMBER_OF_BYTES

Text #2
ID                                       : 5
Format                                   : UTF-8
Codec ID                                 : S_TEXT/UTF8
Codec ID/Info                            : UTF-8 Plain Text
Title                                    : REGOLARI
Language                                 : Italian
Default                                  : No
Forced                                   : No
DURATION                                 : 01:30:11.864000000
NUMBER_OF_FRAMES                         : 1248
NUMBER_OF_BYTES                          : 41048
_STATISTICS_WRITING_APP                  : mkvmerge v8.7.0 ('All of the above') 64bit
_STATISTICS_WRITING_DATE_UTC             : 2017-03-10 14:42:52
_STATISTICS_TAGS                         : BPS DURATION NUMBER_OF_FRAMES NUMBER_OF_BYTES

Text #3
ID                                       : 6
Format                                   : UTF-8
Codec ID                                 : S_TEXT/UTF8
Codec ID/Info                            : UTF-8 Plain Text
Title                                    : NON UDENTI
Language                                 : English
Default                                  : No
Forced                                   : No
DURATION                                 : 01:30:12.323000000
NUMBER_OF_FRAMES                         : 1908
NUMBER_OF_BYTES                          : 54241
_STATISTICS_WRITING_APP                  : mkvmerge v8.7.0 ('All of the above') 64bit
_STATISTICS_WRITING_DATE_UTC             : 2017-03-10 14:42:52
_STATISTICS_TAGS                         : BPS DURATION NUMBER_OF_FRAMES NUMBER_OF_BYTES

Menu
00:00:00.000                             : :00:00:00.000
00:02:49.544                             : :00:02:49.544
00:06:38.565                             : :00:06:38.565
00:11:13.882                             : :00:11:13.882
00:14:07.055                             : :00:14:07.055
00:17:13.157                             : :00:17:13.157
00:21:21.489                             : :00:21:21.489
00:24:43.857                             : :00:24:43.857
00:29:31.895                             : :00:29:31.895
00:33:44.814                             : :00:33:44.814
00:36:27.685                             : :00:36:27.685
00:41:54.137                             : :00:41:54.137
00:45:33.189                             : :00:45:33.189
00:49:46.358                             : :00:49:46.358
00:53:40.509                             : :00:53:40.509
00:56:38.186                             : :00:56:38.186
01:02:11.061                             : :01:02:11.061
01:05:28.883                             : :01:05:28.883
01:09:12.273                             : :01:09:12.273
01:12:09.951                             : :01:12:09.951
01:14:16.410                             : :01:14:16.410
01:17:19.176                             : :01:17:19.176
01:20:00.629                             : :01:20:00.629
01:22:45.669                             : :01:22:45.669



[/spoiler]

[/color][/b][/center]
Absolutely Fabulous Il Film (2016).H264.ita.eng.sub.ita.eng.iCV-MIRCrew.mkv 1.494 GB
Gathering some info...

Register and log in Isohunt and see no captcha anymore!

4000 symbols left
Hash f6db9ff5638c01d410bde9aa8d520a9b94e0e3de

Related torrents for "Absolutely Fabulous: The Movie - Il Film (2016).H264.Italian.English.Ac3.5.1.sub.ita.eng.iCV-MIRCrew [Isohunt.to]"

Torrent search:

italian english h264 2016