nginx CF-RAY: 35749b21d8f2786e-LAX The.Walking.Dead.S07E14.HDTV.x264-MVGEE [Isohunt.to] torrent on rpieclub.org
imdb
rating

8.5
The Walking Dead

The Walking Dead (2010)

Action & Adventure, Drama

Full description

The.Walking.Dead.S07E14.HDTV.x264-MVGEE [Isohunt.to]

Size 272.002 MB   113 seeders     Added 2017-03-20 11:52:21

6.7
The.Walking.Dead.S07E14.HDTV.x264-MVGEE

http://www.imdb.com/title/tt1520211/

A diverse team of scientists, soldiers and adventurers unite to explore a mythical, uncharted island in the Pacific, as dangerous as it is beautiful. Cut off from everything they know, the team ventures into the domain of the mighty Kong, igniting the ultimate battle between man and nature. As their mission of discovery becomes one of survival, they must fight to escape a primal Eden in which humanity does not belong.

Year: 2010–
MPA Rating: TV-MA
Genres: Drama, Horror, Thriller
Runtime: 44min
Rating: 8.5
Creator: Frank Darabont
Stars: Andrew Lincoln, Norman Reedus, Melissa McBride

[img]http://i.imgur.com/FyDSmmW.jpg[/img]


Duration: 00:45:31.96, start: 0.000000, bitrate: 796 kb/s
Stream #0:0(und): Video: h264 (High) (avc1 / 0x31637661), yuv420p, 960x538 [SAR 807:808 DAR 180:101], 660 kb/s, 25 fps, 25 tbr, 12800 tbn, 50 tbc
Stream #0:1(und): Audio: aac (LC) (mp4a / 0x6134706D), 48000 Hz, stereo, fltp, 128 kb/s
The.Walking.Dead.S07E14.HDTV.x264-MVGEE.mp4 272.002 MB
Gathering some info...

Register and log in Isohunt and see no captcha anymore!

4000 symbols left
Hash a105a3bc8c6c737672b88d1b8d53fac38d7793e0

Related torrents for "The.Walking.Dead.S07E14.HDTV.x264-MVGEE [Isohunt.to]"

Torrent search:

episode 14 season 07 x264 hdtv