Torno da mia madre - Retour chez ma mère (2016).H264.Italian.French.Ac3.5.1.sub.ita.iCV-MIRCrew [Isohunt.to]

Size 1.458 GB   84 seeders     Added 2017-03-20 21:09:24

Torno da mia madre - Retour chez ma mère (2016).H264.Italian.French.Ac3.5.1.sub.ita.iCV-MIRCrew

[center]

[color=red][b][img]image[/img]
[u]NO FOUND ONLY ORIGINAL RELEASE[/u]

[img]image[/img]

My release is always in double track audio italian and Original audio
for select it use VLC or dvd player home
not use wmp 

Torno da mia madre (2016)

[img]http://extraimage.net/images/2017/03/20/28b36b02a58b50b32f6bc626ad816e7e.png[/img]

[URL=http://www.imdb.com/showtimes/title/tt5115024/IT/37029][IMG]image[/IMG][/URL] 

[img]image[/img]

    DATA USCITA: 25 agosto 2016
    GENERE: Commedia
    ANNO: 2016
    REGIA: Eric Lavaine
    SCENEGGIATURA: Eric Lavaine
    FOTOGRAFIA: François Hernandez
    MONTAGGIO: Vincent Zuffranieri
    PRODUZIONE: Pathé, Same Player, Scope Pictures
    DISTRIBUZIONE: Officine UBU
    PAESE: Francia
    DURATA: 91 Min

[img]image[/img]

Alexandra Lamy, Josiane Balasko, Mathilde Seigner

[img]image[/img]

Stéphanie ha 40 anni, è divorziata e ha perso il lavoro. Si trova così costretta a tornare a vivere da sua madre Jacqueline, che la accoglie a braccia aperte nel proprio appartamento. La convivenza non è facile e le strambe abitudini della madre si rivelano il pretesto per nascondere un piccante segreto

[img]image[/img]

Stéphanie, a french architect in her early forties, has to return to her mother after loosing her job. Conflicts with her mother and her siblings ensue. 

[img]image[/img]

[img]http://extraimage.net/images/2017/03/20/a75e5f51be364f451570f3546bda3e22.png[/img]
[img]http://extraimage.net/images/2017/03/20/2e696e0b651a0d6982293c088fe0cab5.png[/img]
[img]http://extraimage.net/images/2017/03/20/fc8c9ddfb25f9753c0989c467ed195b0.png[/img]
[img]http://extraimage.net/images/2017/03/20/badcf25c9f37b4864993b0ff91f9d5d9.png[/img]


[img]image[/img]


[spoiler]
General
Unique ID                                : 213827990729496001671829898650329767221 (0xA0DDC5E5415FA02A9973AE70A2375D35)
Complete name                            : Torno da mia madre (2016).H264.ita.fre.sub.ita.iCV-MIRCrew.mkv
Format                                   : Matroska
Format version                           : Version 2
File size                                : 1.36 GiB
Duration                                 : 1h 27mn
Overall bit rate                         : 2 217 Kbps
Movie name                               : www.icv-crew.org
Encoded date                             : UTC 2017-03-18 16:49:36
Writing application                      : mkvmerge v5.4.0 ('Piper') built on Mar 10 2012 13:34:39
Writing library                          : libebml v1.2.3 + libmatroska v1.3.0

Video
ID                                       : 1
Format                                   : AVC
Format/Info                              : Advanced Video Codec
Format profile                           : [email protected]
Format settings, CABAC                   : Yes
Format settings, ReFrames                : 2 frames
Muxing mode                              : Header stripping
Codec ID                                 : V_MPEG4/ISO/AVC
Duration                                 : 1h 27mn
Bit rate                                 : 1 277 Kbps
Width                                    : 720 pixels
Height                                   : 404 pixels
Display aspect ratio                     : 16:9
Frame rate                               : 25.000 fps
Color space                              : YUV
Chroma subsampling                       : 4:2:0
Bit depth                                : 8 bits
Scan type                                : Progressive
Bits/(Pixel*Frame)                       : 0.176
Stream size                              : 801 MiB (58%)
Writing library                          : x264 core
Default                                  : Yes
Forced                                   : No
Color primaries                          : BT.601-6 525, BT.1358 525, BT.1700 NTSC, SMPTE 170M
Transfer characteristics                 : BT.709-5, BT.1361
Matrix coefficients                      : BT.601-6 525, BT.1358 525, BT.1700 NTSC, SMPTE 170M

Audio #1
ID                                       : 2
Format                                   : AC-3
Format/Info                              : Audio Coding 3
Mode extension                           : CM (complete main)
Muxing mode                              : Header stripping
Codec ID                                 : A_AC3
Duration                                 : 1h 27mn
Bit rate mode                            : Constant
Bit rate                                 : 448 Kbps
Channel(s)                               : 6 channels
Channel positions                        : Front: L C R, Side: L R, LFE
Sampling rate                            : 48.0 KHz
Bit depth                                : 16 bits
Compression mode                         : Lossy
Stream size                              : 281 MiB (20%)
Language                                 : Italian
Default                                  : Yes
Forced                                   : No

Audio #2
ID                                       : 3
Format                                   : AC-3
Format/Info                              : Audio Coding 3
Mode extension                           : CM (complete main)
Muxing mode                              : Header stripping
Codec ID                                 : A_AC3
Duration                                 : 1h 27mn
Bit rate mode                            : Constant
Bit rate                                 : 448 Kbps
Channel(s)                               : 6 channels
Channel positions                        : Front: L C R, Side: L R, LFE
Sampling rate                            : 48.0 KHz
Bit depth                                : 16 bits
Compression mode                         : Lossy
Stream size                              : 281 MiB (20%)
Language                                 : French
Default                                  : No
Forced                                   : No

Text
ID                                       : 4
Format                                   : VobSub
Muxing mode                              : zlib
Codec ID                                 : S_VOBSUB
Codec ID/Info                            : The same subtitle format used on DVDs
Language                                 : Italian
Default                                  : Yes
Forced                                   : No

Menu
00:00:00.000                             : en:(01)00:00:00:000
00:09:56.080                             : en:(02)00:09:56:080
00:19:36.520                             : en:(03)00:19:36:520
00:29:17.040                             : en:(04)00:29:17:040
00:39:15.760                             : en:(05)00:39:15:760
00:51:33.320                             : en:(06)00:51:33:320
01:00:44.320                             : en:(07)01:00:44:320
01:13:07.120                             : en:(08)01:13:07:120
01:22:08.400                             : en:(09)01:22:08:400
01:27:43.440                             : en:(10)01:27:43:440


[/spoiler]

[/color][/b][/center]
Torno da mia madre (2016).H264.ita.fre.sub.ita.iCV-MIRCrew.mkv 1.458 GB
Gathering some info...

Register and log in Isohunt and see no captcha anymore!

4000 symbols left
Hash 467e16c04d780be78383d877ed6bf10efd754bec