The Supergirl

The Supergirl

Full description

Supergirl.S02E16.HDTV.x264-MVGEE [Isohunt.to] Verified

Size 251.741 MB   65 seeders     Added 2017-03-21 09:55:48

Supergirl.S02E16.HDTV.x264-MVGEE

http://www.imdb.com/title/tt4016454/

A diverse team of scientists, soldiers and adventurers unite to explore a mythical, uncharted island in the Pacific, as dangerous as it is beautiful. Cut off from everything they know, the team ventures into the domain of the mighty Kong, igniting the ultimate battle between man and nature. As their mission of discovery becomes one of survival, they must fight to escape a primal Eden in which humanity does not belong.

Year: 2015–
MPA Rating: TV-PG
Genres: Action, Adventure, Drama
Runtime: 43min
Rating: 606
Creators: Ali Adler, Greg Berlanti, Andrew Kreisberg
Stars: Melissa Benoist, Mehcad Brooks, Chyler Leigh

[img]http://i.imgur.com/6vHxNaJ.jpg[/img]

Duration: 00:42:29.31, start: -0.012333, bitrate: 789 kb/s
Stream #0:0(und): Video: h264 (Constrained Baseline) (avc1 / 0x31637661), yuv420p, 720x404 [SAR 1:1 DAR 180:101], 655 kb/s, 25 fps, 25 tbr, 12800 tbn, 50 tbc Stream #0:1(und): Audio: aac (LC) (mp4a / 0x6134706D), 48000 Hz, stereo, fltp, 129 kb/s
Supergirl.S02E16.HDTV.x264-MVGEE.mp4 251.741 MB
Gathering some info...

Register and log in Isohunt and see no captcha anymore!

4000 symbols left
Hash 92bf1e621ae63fdf3a9b02ea99ff0db020fa3c07

Related torrents for "Supergirl.S02E16.HDTV.x264-MVGEE [Isohunt.to]"

Torrent search:

season 02 x264 hdtv episode 16