nginx CF-RAY: 357343a63e2b4e96-DME Planet Earth S02e03 - Jungles (2016) [BDMux 1080p ITA AC3 ENG DTS] BBC [Isohunt.to] torrent on rpieclub.org
imdb
rating

9.8
Planet Earth II

Planet Earth II (2016)

Documentary

Full description

Planet Earth S02e03 - Jungles (2016) [BDMux 1080p ITA AC3 ENG DTS] BBC [Isohunt.to]

Size 5.602 GB   0 seeders     Added 2017-04-04 13:39:47

[align=center][URL=http://forum.tntvillage.scambioetico.org/index.php?act=allreleases&st=0&filter=&releaser=%25Sciencefun%25&sb=1&sd=0&cat=0][IMG]image[/IMG][/URL]
 
[b][SIZE=13][color=blue]Planet Earth II[/SIZE][/color][/b]


[IMG]image[/IMG]

[align=center]
[IMG]image[/IMG]

[b]

Genre	Nature documentary
Presented by	David Attenborough
Composer(s)	
Hans Zimmer
Jasha Klebe
Jacob Shea
Country of origin	United Kingdom
Original language(s)	English
[/b]

[IMG]image[/IMG]

[spoiler]
General
Unique ID                                : 232789627063754813470305324533438472021 (0xAF21A6BEE7BB936884889A330287DF55)
Complete name                            : K:\p2p up\Plànèt.3arth.II.-.s02e03 - Giungla (2016) BDMux 1O8Op ITA AC3 ENG DTS Sub Eng.mkv
Format                                   : Matroska
Format version                           : Version 4 / Version 2
File size                                : 5.22 GiB
Duration                                 : 49 min 6 s
Overall bit rate                         : 15.2 Mb/s
Movie name                               : Planet Earth II s02e03 - Giungla (2016) BDMux 1080p ITA AC3 ENG DTS Sub Eng - Sciencefun
Encoded date                             : UTC 2017-04-01 13:47:31
Writing application                      : mkvmerge v9.5.0 ('Quiet Fire') 64bit
Writing library                          : libebml v1.3.4 + libmatroska v1.4.5

Video
ID                                       : 1
Format                                   : AVC
Format/Info                              : Advanced Video Codec
Format profile                           : [email protected]
Format settings, CABAC                   : Yes
Format settings, ReFrames                : 4 frames
Codec ID                                 : V_MPEG4/ISO/AVC
Duration                                 : 49 min 6 s
Bit rate                                 : 13.4 Mb/s
Width                                    : 1 920 pixels
Height                                   : 1 080 pixels
Display aspect ratio                     : 16:9
Frame rate mode                          : Constant
Frame rate                               : 25.000 FPS
Color space                              : YUV
Chroma subsampling                       : 4:2:0
Bit depth                                : 8 bits
Scan type                                : Progressive
Bits/(Pixel*Frame)                       : 0.259
Stream size                              : 4.61 GiB (88%)
Title                                    : Planet Earth II s02e03 - Giungla (2016) BDMux 1080p ITA AC3 ENG DTS Sub Eng - Sciencefun
Writing library                          : x264 core 148 r2705 3f5ed56
Encoding settings                        : cabac=1 / ref=4 / deblock=1:-3:-3 / analyse=0x3:0x133 / me=umh / subme=10 / psy=1 / psy_rd=0.90:0.00 / mixed_ref=1 / me_range=48 / chroma_me=1 / trellis=2 / 8x8dct=1 / cqm=0 / deadzone=21,11 / fast_pskip=1 / chroma_qp_offset=-2 / threads=24 / lookahead_threads=4 / sliced_threads=0 / nr=0 / decimate=1 / interlaced=0 / bluray_compat=0 / constrained_intra=0 / bframes=8 / b_pyramid=2 / b_adapt=2 / b_bias=0 / direct=3 / weightb=1 / open_gop=0 / weightp=2 / keyint=250 / keyint_min=25 / scenecut=40 / intra_refresh=0 / rc=crf / mbtree=0 / crf=18.0 / qcomp=0.60 / qpmin=0 / qpmax=69 / qpstep=4 / ip_ratio=1.40 / pb_ratio=1.30 / aq=3:0.75
Default                                  : Yes
Forced                                   : No

Audio #1
ID                                       : 2
Format                                   : AC-3
Format/Info                              : Audio Coding 3
Mode extension                           : CM (complete main)
Format settings, Endianness              : Big
Codec ID                                 : A_AC3
Duration                                 : 49 min 2 s
Bit rate mode                            : Constant
Bit rate                                 : 256 kb/s
Channel(s)                               : 2 channels
Channel positions                        : Front: L R
Sampling rate                            : 48.0 kHz
Frame rate                               : 31.250 FPS (1536 spf)
Compression mode                         : Lossy
Delay relative to video                  : 400 ms
Stream size                              : 89.8 MiB (2%)
Title                                    : Sciencefun Mux
Language                                 : Italian
Default                                  : Yes
Forced                                   : No

Audio #2
ID                                       : 3
Format                                   : DTS
Format/Info                              : Digital Theater Systems
Mode                                     : 16
Format settings, Endianness              : Big
Codec ID                                 : A_DTS
Duration                                 : 49 min 6 s
Bit rate mode                            : Constant
Bit rate                                 : 1 509 kb/s
Channel(s)                               : 6 channels
Channel positions                        : Front: L C R, Side: L R, LFE
Sampling rate                            : 48.0 kHz
Frame rate                               : 93.750 FPS (512 spf)
Bit depth                                : 24 bits
Compression mode                         : Lossy
Stream size                              : 530 MiB (10%)
Language                                 : English
Default                                  : No
Forced                                   : No

Text #1
ID                                       : 4
Format                                   : UTF-8
Codec ID                                 : S_TEXT/UTF8
Codec ID/Info                            : UTF-8 Plain Text
Duration                                 : 48 min 16 s
Bit rate                                 : 46 b/s
Count of elements                        : 359
Stream size                              : 16.4 KiB (0%)
Language                                 : English
Default                                  : No
Forced                                   : No

Text #2
ID                                       : 5
Format                                   : UTF-8
Codec ID                                 : S_TEXT/UTF8
Codec ID/Info                            : UTF-8 Plain Text
Duration                                 : 48 min 48 s
Bit rate                                 : 46 b/s
Count of elements                        : 378
Stream size                              : 16.7 KiB (0%)
Title                                    : SDH
Language                                 : English
Default                                  : No
Forced                                   : No

Text #3
ID                                       : 6
Format                                   : PGS
Muxing mode                              : zlib
Codec ID                                 : S_HDMV/PGS
Codec ID/Info                            : Picture based subtitle format used on BDs/HD-DVDs
Duration                                 : 48 min 48 s
Bit rate                                 : 7 699 b/s
Count of elements                        : 756
Stream size                              : 2.69 MiB (0%)
Language                                 : English
Default                                  : No
Forced                                   : No

Menu
00:00:00.000                             : en:00:00:00.000
00:11:38.720                             : en:00:11:38.720
00:19:45.200                             : en:00:19:45.200
00:29:46.680                             : en:00:29:46.680
00:40:16.680                             : en:00:40:16.680
00:49:02.760                             : en:00:49:02.760



[/spoiler]

[IMG]image[/IMG]

clicca sopra l'immagine per vederla in rapporto 1:1

[URL=http://www.imagebam.com/image/82c670541732486][IMG]image[/IMG][/URL] [URL=http://www.imagebam.com/image/caed2e541732494][IMG]image[/IMG][/URL] [URL=http://www.imagebam.com/image/04c5b3541732498][IMG]image[/IMG][/URL] [URL=http://www.imagebam.com/image/d64aa4541732506][IMG]image[/IMG][/URL] [URL=http://www.imagebam.com/image/d9ccc7541732511][IMG]image[/IMG][/URL] [URL=http://www.imagebam.com/image/df11ff541732515][IMG]image[/IMG][/URL] [URL=http://www.imagebam.com/image/da592b541732524][IMG]image[/IMG][/URL] [URL=http://www.imagebam.com/image/6a19e3541732528][IMG]image[/IMG][/URL] 


[URL=http://i.imgur.com/mlE65oR.gifv][IMG]image[/IMG][/URL]

[SIZE=14][URL=http://archive.org/download/VlcRecord2017020312h03m54sPlanetEarthIIEpisode2Mountains2016BDRip1080pENGDTSSubItaEngSciencefun/vlc-record-2017-02-03-12h03m54s-Planet%20Earth%20II%20Episode%202_%20Mountains%20(2016)%20BDRip%201080p%20ENG%20DTS%20Sub%20Ita%20Eng%20-%20Sciencefun-.ts]Anteprima - Sample Video[/URL][/SIZE]

[IMG]image[/IMG][SIZE=6]
[b]Seed:
[color=red]Singolo Webseed 
[u]Illimitato[/u] :giggle:  [/SIZE]
[color=purple][u]fino a 100Mbit/s[/u][/color] 

[color=brown]Server: 1Gbps Upload <12h[/color][/b][color=brown]

[color=green]Seed in DHT[/color]
[IMG]image[/IMG][IMG]image[/IMG][IMG]image[/IMG][IMG]image[/IMG]

[color=orange]Mi Raccomando [u]rimanete in Seed[/u]!!![/color][/color][/color]

[IMG]image[/IMG]

[b]un :grazie: è sempre ben accetto[/b][/align]
Plànèt.3arth.II.-.s02e03 - Giungla (2016) BDMux 1O8Op ITA AC3 ENG DTS Sub Eng.mkv 5.602 GB
Gathering some info...

Register and log in Isohunt and see no captcha anymore!

4000 symbols left
Hash 57ab13854953b1cf0994dec38d066eaca5ce9e6c

Related torrents for "Planet Earth S02e03 - Jungles (2016) [BDMux 1080p ITA AC3 ENG DTS] BBC [Isohunt.to]"